<?xml version="1.0" standalone="no"?>
<!DOCTYPE svg PUBLIC "-//W3C//DTD SVG 1.1//EN" "http://www.w3.org/Graphics/SVG/1.1/DTD/svg11.dtd" >
<svg xmlns="http://www.w3.org/2000/svg" xmlns:xlink="http://www.w3.org/1999/xlink" version="1.1">
<metadata>
Created by FontForge 20200314 at Wed Dec  3 05:23:26 2014
 By Unknown
2010 published by FontShop International GmbH
</metadata>
<defs>
<font id="ZwoWebPro-BoldW04-Regular" horiz-adv-x="576" >
  <font-face 
    font-family="ZwoWebPro-BoldW04-Regular"
    font-weight="700"
    font-stretch="normal"
    units-per-em="1000"
    panose-1="2 11 8 4 2 1 1 2 1 2"
    ascent="800"
    descent="-200"
    x-height="500"
    cap-height="667"
    bbox="-474 -289 1204 1100"
    underline-thickness="50"
    underline-position="-125"
    unicode-range="U+0020-FB02"
  />
<missing-glyph horiz-adv-x="581" 
d="M69 667h443v-667h-443v667zM411 101v465h-241v-465h241z" />
    <glyph glyph-name="uniFB01" unicode="fi" horiz-adv-x="634" 
d="M240 396v-396h-129v396h-107v104h107v61q0 81 44.5 119.5t121.5 38.5q27 0 48.5 -4t29.5 -6l-6 -100q-5 2 -18 3.5t-27 1.5q-30 0 -47 -17t-17 -52v-45h124v-104h-124zM437 0v500h129v-500h-129zM582 637q0 -34 -23.5 -57.5t-56.5 -23.5q-34 0 -57.5 23.5t-23.5 57.5
q0 33 23.5 56.5t57.5 23.5q33 0 56.5 -23.5t23.5 -56.5z" />
    <glyph glyph-name="uniFB02" unicode="fl" horiz-adv-x="635" 
d="M240 396v-396h-129v396h-107v104h107v61q0 81 44.5 119.5t121.5 38.5q27 0 48.5 -4t29.5 -6l-6 -100q-5 2 -18 3.5t-27 1.5q-30 0 -47 -17t-17 -52v-45h124v-104h-124zM437 0v705h130v-705h-130z" />
    <glyph glyph-name=".notdef" horiz-adv-x="581" 
d="M69 667h443v-667h-443v667zM411 101v465h-241v-465h241z" />
    <glyph glyph-name="glyph1" horiz-adv-x="0" 
 />
    <glyph glyph-name="glyph1" horiz-adv-x="0" 
 />
    <glyph glyph-name="glyph2" horiz-adv-x="229" 
 />
    <glyph glyph-name="space" unicode=" " horiz-adv-x="229" 
 />
    <glyph glyph-name="exclam" unicode="!" horiz-adv-x="254" 
d="M189 240h-123l-6 427h135zM206 64q0 -35 -22.5 -56.5t-56.5 -21.5q-35 0 -57 22t-22 56t22 56t57 22t57 -22t22 -56z" />
    <glyph glyph-name="quotedbl" unicode="&#x22;" horiz-adv-x="431" 
d="M378 350h-100l-14 317h128zM153 350h-100l-14 317h128z" />
    <glyph glyph-name="numbersign" unicode="#" horiz-adv-x="695" 
d="M527 383l-13 -125h104v-102h-115l-16 -156h-104l17 156h-127l-16 -156h-103l16 156h-104v102h115l13 125h-104v102h115l17 155h103l-17 -155h127l16 155h104l-17 -155h104v-102h-115zM297 383l-13 -125h127l13 125h-127z" />
    <glyph glyph-name="dollar" unicode="$" 
d="M476 189q0 -33 -9.5 -63.5t-28 -55.5t-45.5 -44t-61 -29v-94h-79v82h-5q-59 0 -99 11.5t-54 19.5l5 112q8 -5 23 -11t33.5 -12t40.5 -10t44 -4q52 0 80 26t28 64q0 36 -25 60t-60 38l-24 10q-33 13 -59.5 30.5t-46 41.5t-30 56.5t-10.5 76.5q0 72 42 121t117 62v87h79
v-84q45 -2 74.5 -10.5t39.5 -13.5l-6 -110q-14 8 -48 19t-76 11q-41 0 -67.5 -19.5t-26.5 -59.5q0 -36 22.5 -58.5t60.5 -38.5l24 -10q34 -14 61 -32t46 -42t29.5 -55.5t10.5 -71.5z" />
    <glyph glyph-name="percent" unicode="%" horiz-adv-x="782" 
d="M741 159q0 -34 -8 -65.5t-26.5 -55.5t-48.5 -38.5t-73 -14.5t-72.5 14.5t-47.5 38.5t-26 55t-8 65t8 65.5t26.5 55.5t48.5 38.5t73 14.5t72.5 -14t47.5 -38t26 -55.5t8 -65.5zM349 482q0 -34 -8 -65.5t-26.5 -55.5t-48.5 -38.5t-73 -14.5t-72.5 14t-47.5 38t-26 55.5
t-8 65.5t8 65.5t26.5 55.5t48.5 38.5t73 14.5t72.5 -14.5t47.5 -38.5t26 -55t8 -65zM272 0h-122l359 640h122zM643 174q0 29 -14 51t-42 22q-31 0 -44 -21.5t-13 -50.5v-32q0 -29 14 -51t42 -22q31 0 44 21.5t13 50.5v32zM251 497q0 29 -14 50.5t-42 21.5q-31 0 -44 -21.5
t-13 -50.5v-32q0 -29 14 -50.5t42 -21.5q31 0 44 21.5t13 50.5v32z" />
    <glyph glyph-name="ampersand" unicode="&#x26;" horiz-adv-x="620" 
d="M456 0l-38 45q-8 -6 -22.5 -16t-37 -19.5t-52 -16.5t-66.5 -7q-53 0 -91 14.5t-62 39.5t-35 57.5t-11 67.5q0 34 10.5 61.5t28.5 50t41 41t47 35.5q-27 32 -45.5 64.5t-18.5 74.5q0 39 14 69t38.5 51t57 32t69.5 11q36 0 67.5 -10t54.5 -29.5t36 -48t13 -66.5
q0 -29 -12 -52t-30.5 -43t-42 -37t-47.5 -33l105 -133q12 14 23 30.5t20 32.5t15 30t9 23l66 -101q-3 -8 -9 -20.5t-14 -26.5t-17.5 -28t-20.5 -25l102 -118h-145zM230 278q-9 -7 -21 -16t-22.5 -21.5t-18 -28t-7.5 -35.5q0 -42 26.5 -65t63.5 -23q35 0 59.5 14.5t37.5 25.5
zM344 497q0 28 -16.5 45.5t-45.5 17.5q-31 0 -47.5 -19t-16.5 -48q0 -24 14.5 -45.5t27.5 -37.5q16 10 31 19.5t27 20t19 22t7 25.5z" />
    <glyph glyph-name="quotesingle" unicode="'" horiz-adv-x="206" 
d="M153 350h-100l-14 317h128z" />
    <glyph glyph-name="parenleft" unicode="(" horiz-adv-x="427" 
d="M249 -133q-20 19 -47 58t-52.5 95t-43 128t-17.5 158t17.5 158.5t43 128.5t52.5 95t47 58h128q-19 -22 -45 -63t-50 -96t-40.5 -121.5t-16.5 -139.5v-39q0 -73 16.5 -139.5t40.5 -121.5t50 -96t45 -63h-128z" />
    <glyph glyph-name="parenright" unicode=")" horiz-adv-x="427" 
d="M337 307q0 -86 -17.5 -158.5t-43 -128.5t-53 -95t-46.5 -58h-128q19 22 45 63t50 96t41 121.5t17 139.5v39q0 73 -17 139.5t-41 121.5t-50 96t-45 63h128q19 -19 46.5 -58t53 -95t43 -128.5t17.5 -157.5z" />
    <glyph glyph-name="asterisk" unicode="*" horiz-adv-x="478" 
d="M317 450l65 -108l-62 -45l-81 96l-82 -96l-61 45l65 108l-116 49l24 73l122 -30l11 125h76l9 -125l123 29l23 -73z" />
    <glyph glyph-name="plus" unicode="+" 
d="M341 269v-200h-107v200h-188v102h188v199h107v-199h188v-102h-188z" />
    <glyph glyph-name="comma" unicode="," horiz-adv-x="245" 
d="M105 -125h-105l69 263h133z" />
    <glyph glyph-name="hyphen" unicode="-" horiz-adv-x="352" 
d="M39 228v105h273v-105h-273z" />
    <glyph glyph-name="period" unicode="." horiz-adv-x="257" 
d="M225 72q0 -18 -7 -33.5t-18.5 -27t-27.5 -18.5t-34 -7t-33.5 7t-27 18.5t-18.5 27t-7 33.5t7 34t18.5 27.5t27 18.5t33.5 7q36 0 61.5 -25.5t25.5 -61.5z" />
    <glyph glyph-name="slash" unicode="/" horiz-adv-x="468" 
d="M165 -112h-113l284 831h113z" />
    <glyph glyph-name="zero" unicode="0" 
d="M530 335q0 -75 -12 -139t-40 -111t-75 -73.5t-117 -26.5t-116.5 26.5t-74 73t-38.5 110t-11 137.5q0 75 12 139t40 111t75 73.5t117 26.5t116 -26.5t73.5 -73t39 -110t11.5 -137.5zM395 372q0 42 -5.5 78.5t-18.5 63t-33 41.5t-49 15q-32 0 -52.5 -15t-33.5 -41t-18 -62
t-5 -79v-78q0 -42 6 -78.5t18.5 -63.5t33 -42t49.5 -15q31 0 52 15t33.5 41.5t17.5 62.5t5 79v78z" />
    <glyph glyph-name="one" unicode="1" 
d="M72 0v108l163 1v423q-17 -8 -59.5 -25t-97.5 -35l-6 114q71 25 118 48t63 33h114v-558l151 -1v-108h-446z" />
    <glyph glyph-name="two" unicode="2" 
d="M63 0v120q19 16 48.5 42t60.5 55t60 58.5t47 52.5q32 40 54 75.5t22 74.5t-27.5 65.5t-78.5 26.5q-19 0 -41.5 -5t-45 -13.5t-43.5 -20t-37 -23.5l-6 115q39 26 90.5 42.5t106.5 16.5q49 0 89.5 -13.5t69 -38t44 -59.5t15.5 -78q0 -38 -10 -70.5t-27.5 -63t-42 -60
t-52.5 -61.5q-11 -12 -28.5 -29t-37 -35.5t-38 -35.5t-30.5 -28v-1l267 -1v-108h-429z" />
    <glyph glyph-name="three" unicode="3" 
d="M495 188q0 -50 -20 -88t-54 -63.5t-80.5 -38.5t-98.5 -13t-97.5 9.5t-72.5 20.5l6 113q28 -14 68 -23t85 -9q58 0 93 25t35 73q0 25 -12.5 43t-33.5 29t-48.5 16t-57.5 5h-14q-8 0 -26 -0.5t-51 -0.5v106l93 1q65 1 103.5 25.5t38.5 70.5q0 38 -29.5 60.5t-86.5 22.5
q-45 0 -87 -13.5t-65 -26.5l-6 109q29 14 74.5 27.5t107.5 13.5q46 0 87.5 -10t72.5 -32t49.5 -55.5t18.5 -81.5q0 -36 -13 -63t-31.5 -46t-39 -30.5t-34.5 -15.5v-2q15 -3 37 -12.5t41.5 -28.5t33.5 -47.5t14 -69.5z" />
    <glyph glyph-name="four" unicode="4" 
d="M459 156v-156h-134v156h-296v123l239 388h191v-403h91v-108h-91zM325 565h-1l-187 -302v-1q12 0 32.5 0.5t46 1t53.5 0.5h56v301z" />
    <glyph glyph-name="five" unicode="5" 
d="M507 212q0 -51 -19.5 -93t-54 -71.5t-82 -45.5t-102.5 -16q-69 0 -112.5 13t-57.5 19l6 114q7 -4 22.5 -10t36 -11.5t44 -9.5t47.5 -4q66 0 101.5 30t35.5 82q0 54 -43.5 80.5t-110.5 26.5h-132l7 351h394v-107l-269 -1l-2 -140h58q51 0 94 -12.5t73.5 -38.5t48 -65
t17.5 -91z" />
    <glyph glyph-name="six" unicode="6" 
d="M531 210q0 -47 -14 -88t-42.5 -71.5t-72.5 -48t-105 -17.5q-65 0 -111 21.5t-75 62.5t-42.5 100.5t-13.5 135.5q0 108 25 180t66 116t95 62.5t112 18.5q41 0 74 -7t61 -18l-5 -112q-38 16 -68 21t-60 5q-33 0 -63.5 -12.5t-53.5 -37.5t-37 -64t-14 -91v-13h1
q6 7 17.5 17.5t29 20t41 16t52.5 6.5q49 0 87 -15.5t64 -42.5t39 -64.5t13 -80.5zM396 202q0 44 -24 75t-73 31q-52 0 -79.5 -28.5t-27.5 -66.5q0 -22 5.5 -43.5t18 -39t32 -28t48.5 -10.5q53 0 76.5 32t23.5 78z" />
    <glyph glyph-name="seven" unicode="7" 
d="M281 0h-150l216 555l-291 2v110h474z" />
    <glyph glyph-name="eight" unicode="8" 
d="M523 178q0 -51 -19 -87.5t-52 -60t-77.5 -34.5t-95.5 -11q-48 0 -89.5 11t-72 34t-47.5 58.5t-17 83.5q0 42 15 70.5t35.5 47t41 29.5t31.5 18v1q-13 7 -32 19t-37 31.5t-30.5 47t-12.5 65.5q0 48 19 82.5t50.5 56t73.5 32t87 10.5q47 0 87 -11t69 -33.5t45.5 -55.5
t16.5 -77q0 -38 -13 -65.5t-31 -46.5t-37 -30t-31 -17v-1q15 -8 36 -20.5t40.5 -32t33 -47.5t13.5 -67zM388 181q0 27 -14 46t-32 32t-35.5 20t-24.5 11q-6 -4 -22 -11t-32.5 -19.5t-29.5 -31.5t-13 -47q0 -46 26.5 -70.5t73.5 -24.5q46 0 74.5 24t28.5 71zM380 494
q0 42 -23 63.5t-67 21.5q-43 0 -67 -21.5t-24 -62.5q0 -26 12.5 -44t28.5 -30t32 -19.5t23 -11.5q4 3 18 10t29 19t26.5 30.5t11.5 44.5z" />
    <glyph glyph-name="nine" unicode="9" 
d="M521 362q0 -108 -25 -180t-66 -116t-95 -62.5t-112 -18.5q-41 0 -74 7t-62 18l6 112q38 -16 67.5 -21t59.5 -5q33 0 63.5 12.5t54 38t37 64t13.5 91.5v12h-1q-5 -8 -16.5 -18t-29 -19.5t-41 -16t-52.5 -6.5q-50 0 -88 15.5t-63.5 42.5t-38.5 64t-13 81q0 47 14 88
t42.5 71.5t72.5 48t105 17.5q65 0 111 -21.5t75 -62.5t42.5 -100.5t13.5 -135.5zM383 454q0 22 -5.5 43.5t-17.5 39t-32 28t-48 10.5q-54 0 -77 -32t-23 -78q0 -44 23.5 -74.5t72.5 -30.5q53 0 80 28t27 66z" />
    <glyph glyph-name="colon" unicode=":" horiz-adv-x="257" 
d="M225 428q0 -36 -25.5 -61.5t-61.5 -25.5q-18 0 -33.5 7t-27 18.5t-18.5 27.5t-7 34t7 33.5t18.5 27t27 18.5t33.5 7t34 -7t27.5 -18.5t18.5 -27t7 -33.5zM225 72q0 -18 -7 -33.5t-18.5 -27t-27.5 -18.5t-34 -7t-33.5 7t-27 18.5t-18.5 27t-7 33.5t7 34t18.5 27.5t27 18.5
t33.5 7q36 0 61.5 -25.5t25.5 -61.5z" />
    <glyph glyph-name="semicolon" unicode=";" horiz-adv-x="254" 
d="M117 -125h-105l69 263h133zM237 428q0 -36 -25.5 -61.5t-61.5 -25.5t-61.5 25.5t-25.5 61.5q0 18 7 33.5t18.5 27t27.5 18.5t34 7t34 -7t27.5 -18.5t18.5 -27t7 -33.5z" />
    <glyph glyph-name="less" unicode="&#x3c;" 
d="M36 320l504 267v-113l-299 -153l299 -155v-113z" />
    <glyph glyph-name="equal" unicode="=" 
d="M46 372v101h483v-101h-483zM46 168v101h483v-101h-483z" />
    <glyph glyph-name="greater" unicode="&#x3e;" 
d="M36 53v113l299 156l-299 152v113l504 -267z" />
    <glyph glyph-name="question" unicode="?" horiz-adv-x="445" 
d="M394 526q0 -27 -7 -49t-18.5 -41.5t-27 -38t-31.5 -36.5l-9 -9q-23 -26 -30.5 -48t-7.5 -49v-15h-123q-1 8 -1 15v14q0 25 4 45t12 36.5t19 31.5t26 31l9 10q26 29 38 49t12 42q0 28 -20.5 43.5t-52.5 15.5q-20 0 -38.5 -4t-33.5 -9t-26.5 -11t-17.5 -10l-6 111
q13 8 49.5 20t93.5 12q46 0 81.5 -12.5t58.5 -33.5t35 -49.5t12 -60.5zM278 64q0 -35 -22 -56.5t-56 -21.5q-35 0 -57 22t-22 56t22 56t57 22q34 0 56 -22t22 -56z" />
    <glyph glyph-name="at" unicode="@" horiz-adv-x="929" 
d="M858 338q0 -57 -13 -104.5t-37.5 -82t-61 -54t-83.5 -19.5q-34 0 -57.5 11t-38 26t-21.5 32t-8 29h-1q-5 -12 -15.5 -29t-27 -32t-39.5 -26t-53 -11q-61 0 -97.5 43.5t-36.5 118.5q0 52 10.5 97t31.5 78t53 51.5t76 18.5q20 0 36 -4.5t28 -11t19.5 -14t11.5 -12.5h1l3 29
h90l-19 -195q-1 -9 -1.5 -17.5t-0.5 -16.5q0 -40 14 -59t46 -19q17 0 32.5 9.5t27 29.5t18.5 51.5t7 76.5q0 52 -19 97.5t-54.5 79t-86 53t-114.5 19.5q-71 0 -128 -25.5t-97.5 -69t-62.5 -103t-22 -126.5q0 -74 25.5 -127.5t67.5 -89t95.5 -52.5t110.5 -17q39 0 75.5 6
t67 14.5t54.5 18t37 16.5l6 -104q-13 -6 -36.5 -14.5t-55.5 -16.5t-70.5 -13.5t-80.5 -5.5q-68 0 -139.5 19.5t-130.5 64.5t-97 118.5t-38 181.5q0 87 30.5 164t86.5 134t133.5 90.5t172.5 33.5q80 0 149 -25.5t119.5 -71t79 -108t28.5 -135.5zM523 374q-7 7 -25 17t-43 10
q-38 0 -57 -28t-25 -70l-4 -33q-1 -7 -1.5 -13.5t-0.5 -11.5q0 -35 15 -57t44 -22q16 0 31 11t27 29.5t20 43t11 52.5z" />
    <glyph glyph-name="A" unicode="A" horiz-adv-x="659" 
d="M481 0l-45 153h-230l-46 -153h-133l216 667h167l212 -667h-141zM322 551h-1l-86 -291h173z" />
    <glyph glyph-name="B" unicode="B" horiz-adv-x="586" 
d="M540 199q0 -47 -13.5 -84t-43.5 -62.5t-78 -39t-116 -13.5h-216v667h225q44 0 84.5 -7t71.5 -25t49.5 -50t18.5 -82q0 -39 -13.5 -65.5t-31.5 -44t-37 -26.5t-30 -12v-1q10 -2 31.5 -9t43.5 -24t38.5 -46.5t16.5 -75.5zM405 200q0 53 -31 74.5t-88 21.5h-81v-192h75
q125 0 125 96zM387 488q0 43 -26.5 60t-74.5 17h-81v-167h75q55 0 81 23.5t26 66.5z" />
    <glyph glyph-name="C" unicode="C" horiz-adv-x="500" 
d="M478 28q-36 -20 -79 -31.5t-98 -11.5q-83 0 -134.5 26.5t-80.5 73t-39 110t-10 137.5q0 76 12.5 140.5t44.5 111t87 72.5t140 26q45 0 81.5 -9t68.5 -23l-6 -110q-32 14 -66 23.5t-68 9.5q-81 0 -120 -52t-39 -143v-90q0 -54 12 -91.5t33 -60t50 -32.5t64 -10
q39 0 73.5 13t67.5 32z" />
    <glyph glyph-name="D" unicode="D" horiz-adv-x="633" 
d="M586 337q0 -85 -15 -148t-51.5 -105t-98 -63t-155.5 -21h-193v667h221q91 0 148 -21t89 -63t43.5 -103.5t11.5 -142.5zM450 385q0 50 -12 83.5t-33.5 54t-51 29t-63.5 8.5h-85v-453h52q103 0 148 40.5t45 137.5v100z" />
    <glyph glyph-name="E" unicode="E" horiz-adv-x="511" 
d="M73 0v667h389v-108l-257 -1v-159h235v-107h-235v-183l257 -1v-108h-389z" />
    <glyph glyph-name="F" unicode="F" horiz-adv-x="484" 
d="M205 558v-189h221v-109h-221v-260h-132v667h371v-108z" />
    <glyph glyph-name="G" unicode="G" horiz-adv-x="607" 
d="M543 43q-11 -7 -32.5 -17t-51.5 -19t-67.5 -15.5t-81.5 -6.5q-83 0 -134.5 26t-80 72t-38.5 109.5t-10 139.5t13 140t46.5 110.5t90.5 73t146 26.5q33 0 59 -3t47 -8.5t40 -12.5t39 -15l-6 -111q-33 14 -74 27.5t-97 13.5q-87 0 -128 -50.5t-41 -145.5v-90
q0 -54 10 -90.5t28.5 -59.5t43.5 -33t55 -10q38 0 64 8.5t35 13.5v149h-98v104h223v-326z" />
    <glyph glyph-name="H" unicode="H" horiz-adv-x="658" 
d="M452 0v288h-247v-288h-132v667h132v-264h247v264h132v-667h-132z" />
    <glyph glyph-name="I" unicode="I" horiz-adv-x="280" 
d="M73 0v667h133v-667h-133z" />
    <glyph glyph-name="J" unicode="J" horiz-adv-x="355" 
d="M286 183q0 -101 -44.5 -149.5t-144.5 -48.5q-30 0 -54.5 5t-33.5 8l6 104q7 -2 24 -5.5t37 -3.5q43 0 60.5 27t17.5 81v466h132v-484z" />
    <glyph glyph-name="K" unicode="K" horiz-adv-x="595" 
d="M425 0q-29 36 -61 77.5t-62 82t-55.5 75.5t-40.5 56h-1v-291h-132v667h132v-284h1l205 284h156l-243 -321q13 -19 39 -53t61 -79.5t78.5 -100t91.5 -113.5h-169z" />
    <glyph glyph-name="L" unicode="L" horiz-adv-x="481" 
d="M73 0v667h132v-559l249 -1v-107h-381z" />
    <glyph glyph-name="M" unicode="M" horiz-adv-x="805" 
d="M616 0l-23 476h-1l-190 -368l-190 368h-1l-21 -476h-127l44 667h133l163 -313h1l160 313h134l44 -667h-126z" />
    <glyph glyph-name="N" unicode="N" horiz-adv-x="661" 
d="M448 0l-254 464h-1l2 -464h-122v667h141l254 -464h1l-3 464h122v-667h-140z" />
    <glyph glyph-name="O" unicode="O" horiz-adv-x="621" 
d="M584 334q0 -79 -11 -143.5t-42 -110t-85 -70.5t-140 -25t-138.5 25t-81.5 70.5t-39 110t-10 143.5q0 78 11.5 142.5t42 110t84.5 70.5t140 25t138.5 -25t81.5 -70.5t39 -110t10 -142.5zM449 377q0 196 -137 196q-140 0 -140 -196v-87q0 -196 137 -196q140 0 140 196v87z
" />
    <glyph glyph-name="P" unicode="P" horiz-adv-x="563" 
d="M534 463q0 -223 -261 -223h-68v-240h-132v667h219q114 0 178 -47.5t64 -156.5zM400 455q0 53 -26.5 79t-89.5 26h-79v-214h59q39 0 65.5 8t42 22t22 34.5t6.5 44.5z" />
    <glyph glyph-name="Q" unicode="Q" horiz-adv-x="621" 
d="M584 334q0 -70 -8.5 -128.5t-32 -103t-63.5 -73.5t-103 -38q-5 -25 -5 -42q0 -32 16 -49t54 -17q5 0 11.5 0.5t13.5 1.5l3 -83q-36 -6 -65 -6q-43 0 -71 10t-44.5 26.5t-23.5 38.5t-7 46q0 17 2.5 35t7.5 35q-74 5 -119 32t-70.5 72.5t-34 107t-8.5 135.5
q0 78 11.5 142.5t42 110t84.5 70.5t140 25t138.5 -25t81.5 -70.5t39 -110t10 -142.5zM451 376q0 98 -33.5 147.5t-105.5 49.5q-141 0 -141 -197v-88q0 -98 33.5 -147.5t104.5 -49.5q142 0 142 197v88z" />
    <glyph glyph-name="R" unicode="R" horiz-adv-x="596" 
d="M418 0l-78 198q-24 59 -68 59h-67v-257h-132v667h229q53 0 97 -10.5t75 -33.5t48 -59.5t17 -89.5q0 -35 -10.5 -63t-28.5 -49.5t-42 -36.5t-51 -23v-1q8 -2 26 -15.5t33 -48.5l104 -237h-152zM405 463q0 48 -25.5 73t-86.5 25h-88v-199h80q62 0 91 27.5t29 73.5z" />
    <glyph glyph-name="S" unicode="S" horiz-adv-x="518" 
d="M477 190q0 -44 -15 -81t-46 -65t-77 -43.5t-108 -15.5q-57 0 -103 11.5t-82 29.5l6 118q38 -23 81 -36.5t89 -13.5q64 0 92 26.5t28 63.5q0 35 -28.5 57.5t-72.5 37.5l-27 9q-41 14 -72 32t-52 42.5t-31.5 57t-10.5 74.5q0 41 15 75.5t44.5 59.5t72 39t98.5 14
q54 0 95 -10t73 -24l-6 -114q-28 13 -67.5 26t-86.5 13q-50 0 -77 -20t-27 -58q0 -35 25.5 -55.5t73.5 -37.5l27 -10q82 -30 125.5 -75.5t43.5 -126.5z" />
    <glyph glyph-name="T" unicode="T" horiz-adv-x="509" 
d="M321 555v-555h-132v555h-175v112h481v-112h-174z" />
    <glyph glyph-name="U" unicode="U" horiz-adv-x="645" 
d="M571 232q0 -133 -65.5 -190t-189.5 -57q-58 0 -103.5 12.5t-76.5 41.5t-47 76.5t-16 116.5v435h132v-435q0 -66 29.5 -101.5t87.5 -35.5q60 0 88.5 35t28.5 102v435h132v-435z" />
    <glyph glyph-name="V" unicode="V" horiz-adv-x="609" 
d="M386 0h-167l-202 667h141l148 -551h1l152 551h133z" />
    <glyph glyph-name="W" unicode="W" horiz-adv-x="922" 
d="M736 0h-162l-114 541h-1l-115 -541h-161l-162 667h131l111 -541h2l112 541h174l106 -541h1l115 541h128z" />
    <glyph glyph-name="X" unicode="X" horiz-adv-x="621" 
d="M452 0l-142 243h-1l-142 -243h-151l213 346l-198 321h150l130 -220h1l128 220h149l-197 -322l213 -345h-153z" />
    <glyph glyph-name="Y" unicode="Y" horiz-adv-x="586" 
d="M359 229v-229h-133v229l-219 438h144l144 -318h1l146 318h136z" />
    <glyph glyph-name="Z" unicode="Z" horiz-adv-x="532" 
d="M210 109l287 -1v-108h-489l298 558l-261 1v108h462z" />
    <glyph glyph-name="bracketleft" unicode="[" horiz-adv-x="437" 
d="M129 -133v879h219v-111h-87v-657h87v-111h-219z" />
    <glyph glyph-name="backslash" unicode="\" horiz-adv-x="488" 
d="M323 -112l-284 831h113l284 -831h-113z" />
    <glyph glyph-name="bracketright" unicode="]" horiz-adv-x="437" 
d="M89 -133v111h86v657h-86v111h219v-879h-219z" />
    <glyph glyph-name="asciicircum" unicode="^" 
d="M442 151l-155 299l-153 -299h-113l267 504l267 -504h-113z" />
    <glyph glyph-name="underscore" unicode="_" horiz-adv-x="544" 
d="M0 -150v101h544v-101h-544z" />
    <glyph glyph-name="grave" unicode="`" horiz-adv-x="382" 
d="M175 560l-84 151h131l68 -151h-115z" />
    <glyph glyph-name="a" unicode="a" horiz-adv-x="530" 
d="M349 0l-7 65h-1q-5 -10 -16.5 -23.5t-30.5 -26t-45.5 -21t-60.5 -8.5q-77 0 -114.5 41.5t-37.5 106.5q0 41 16.5 72t46 52t70.5 31.5t91 10.5q24 0 44 -1.5t28 -2.5v43q0 40 -26 56t-70 16q-42 0 -80 -10t-75 -27l-6 102q39 18 85 28t98 10q43 0 80.5 -7t65 -26.5t43 -53
t15.5 -87.5v-340h-113zM332 217q-5 1 -19 2t-34 1q-19 0 -39 -3.5t-36.5 -12.5t-27 -24t-10.5 -37q0 -31 18.5 -46.5t47.5 -15.5q19 0 37.5 8.5t32 23.5t22 36t8.5 45v23z" />
    <glyph glyph-name="b" unicode="b" horiz-adv-x="571" 
d="M531 251q0 -56 -10.5 -104.5t-33.5 -84t-60 -56t-90 -20.5q-59 0 -92 23.5t-49 52.5h-1l-6 -62h-116v705h130v-256h1q10 13 23 24.5t30.5 20.5t39.5 14.5t51 5.5q52 0 87 -19t56.5 -54t30.5 -83.5t9 -106.5zM399 283q0 60 -26.5 93t-69.5 33q-23 0 -41 -9.5t-31.5 -25
t-20.5 -36.5t-7 -44v-82q0 -27 8 -49.5t21 -38t30.5 -24.5t37.5 -9q52 0 75.5 37.5t23.5 91.5v63z" />
    <glyph glyph-name="c" unicode="c" horiz-adv-x="424" 
d="M395 17q-30 -15 -65 -23t-82 -8q-62 0 -102.5 19t-64.5 53.5t-33.5 83.5t-9.5 109t11.5 108.5t37.5 83t69 53t106 18.5q25 0 46.5 -3.5t38 -8.5t27.5 -9.5t14 -6.5l-6 -104q-4 2 -14 6.5t-24.5 9t-31.5 8t-36 3.5q-48 0 -76.5 -33t-28.5 -99v-54q0 -69 31 -100.5
t74 -31.5q33 0 61 8t51 20z" />
    <glyph glyph-name="d" unicode="d" horiz-adv-x="570" 
d="M382 0l-6 61h-1q-20 -29 -54.5 -52t-92.5 -23q-52 0 -88 19t-58 54t-31.5 83t-9.5 107q0 56 10.5 104.5t33.5 84t60 56t90 20.5q30 0 52 -6.5t38 -16t27 -21t17 -21.5h1v256h129v-705h-117zM370 288q0 27 -8 49.5t-21 38t-30.5 24.5t-36.5 9q-53 0 -76.5 -37.5
t-23.5 -91.5v-63q0 -60 26 -93t70 -33q22 0 40 9.5t31.5 25.5t21 37t7.5 45v80z" />
    <glyph glyph-name="e" unicode="e" horiz-adv-x="509" 
d="M473 262q0 -7 -0.5 -15.5t-1 -16.5t-0.5 -14h-305v-11q0 -22 6 -42.5t20.5 -37t37.5 -26.5t57 -10q43 0 82 10t72 26l6 -101q-29 -17 -73.5 -27.5t-100.5 -10.5q-70 0 -115.5 18.5t-72 52.5t-37 82.5t-10.5 108.5q0 59 12.5 108t40 84t72 54.5t108.5 19.5
q104 0 153 -58.5t49 -181.5v-12zM352 302q0 22 -3 44t-12 39.5t-26 28.5t-45 11q-27 0 -46.5 -10.5t-31.5 -28t-18 -39.5t-6 -45h188z" />
    <glyph glyph-name="f" unicode="f" horiz-adv-x="369" 
d="M240 396v-396h-129v396h-107v104h107v61q0 81 44.5 119.5t121.5 38.5q27 0 48.5 -4t29.5 -6l-6 -100q-5 2 -18 3.5t-27 1.5q-30 0 -47 -17t-17 -52v-45h124v-104h-124z" />
    <glyph glyph-name="g" unicode="g" horiz-adv-x="561" 
d="M543 405l-84 8q6 -6 16 -24.5t10 -45.5q0 -37 -16 -67.5t-45.5 -52t-71 -33.5t-91.5 -12q-21 0 -41 1.5t-28 3.5q-4 -5 -9 -14t-5 -17q0 -14 12 -25t47 -12l81 -1q37 -1 71 -9t59.5 -25.5t40.5 -45t15 -67.5q0 -43 -21.5 -77.5t-57.5 -58.5t-84.5 -37t-102.5 -13
q-106 0 -156.5 39t-50.5 105q0 37 26 69.5t67 49.5v1q-8 1 -19 6t-20.5 14t-16.5 22.5t-7 33.5q0 16 6.5 30.5t16 26t19.5 20t17 13.5q-9 5 -22 15.5t-25 27t-20.5 39t-8.5 51.5q0 77 59 123.5t167 46.5q34 0 61 -5t38 -9l180 3zM382 -44q0 29 -26.5 44.5t-68.5 15.5h-75
q-7 -3 -17 -8.5t-19 -15t-15 -22.5t-6 -29q0 -34 27.5 -54.5t72.5 -20.5q29 0 52.5 7t40 18.5t25.5 26t9 29.5v9zM363 352q0 33 -23.5 54.5t-68.5 21.5t-69.5 -22.5t-24.5 -53.5v-18q0 -35 23 -55t69 -20q45 0 69.5 22t24.5 53v18z" />
    <glyph glyph-name="h" unicode="h" horiz-adv-x="579" 
d="M384 0v306q0 18 -3.5 35t-12.5 30t-25.5 21t-42.5 8q-21 0 -39.5 -7.5t-32.5 -20.5t-22.5 -30t-8.5 -35v-307h-130v705h130v-260h1q7 8 20.5 20t33 23t45 18.5t55.5 7.5q75 0 118.5 -40t43.5 -128v-346h-130z" />
    <glyph glyph-name="i" unicode="i" horiz-adv-x="269" 
d="M71 0v500h130v-500h-130zM216 637q0 -34 -23.5 -57.5t-56.5 -23.5q-34 0 -57.5 23.5t-23.5 57.5q0 33 23.5 56.5t57.5 23.5q33 0 56.5 -23.5t23.5 -56.5z" />
    <glyph glyph-name="j" unicode="j" horiz-adv-x="279" 
d="M211 -59q0 -83 -43.5 -121.5t-118.5 -38.5q-27 0 -46.5 4t-26.5 6l6 100q5 -2 16 -3.5t24 -1.5q59 0 59 69v545h130v-559zM226 637q0 -34 -23.5 -57.5t-56.5 -23.5q-34 0 -57.5 23.5t-23.5 57.5q0 33 23.5 56.5t57.5 23.5q33 0 56.5 -23.5t23.5 -56.5z" />
    <glyph glyph-name="k" unicode="k" horiz-adv-x="532" 
d="M375 0q-28 33 -55.5 68.5t-51 68t-42.5 59t-29 42.5h-1v-238h-129v705h129v-409h1l151 204h153l-178 -224q10 -15 30 -42t48 -63.5t62 -80t73 -90.5h-161z" />
    <glyph glyph-name="l" unicode="l" horiz-adv-x="269" 
d="M71 0v705h130v-705h-130z" />
    <glyph glyph-name="m" unicode="m" horiz-adv-x="858" 
d="M663 0v306q0 18 -3 35t-11.5 30t-23 21t-36.5 8q-18 0 -35 -7.5t-30 -20.5t-21 -29.5t-8 -34.5v-308h-130v306q0 18 -3 35t-11 30t-22.5 21t-36.5 8q-19 0 -36 -8t-30 -20.5t-20.5 -29t-7.5 -34.5v-308h-130v500h124v-61h1q6 9 19.5 22t32.5 24.5t43.5 20t53.5 8.5
q57 0 88.5 -22.5t47.5 -60.5q7 10 21 24.5t34.5 27.5t45.5 22t55 9q43 0 73 -12t49 -34t27.5 -53t8.5 -69v-346h-129z" />
    <glyph glyph-name="n" unicode="n" horiz-adv-x="581" 
d="M386 0v306q0 18 -3.5 35t-12.5 30t-25.5 21t-42.5 8q-21 0 -39.5 -7.5t-32.5 -20.5t-22.5 -29.5t-8.5 -34.5v-308h-130v500h124v-61h2q7 9 20.5 22t34 24.5t46.5 20t58 8.5q37 0 67 -9.5t51 -30t32.5 -52.5t11.5 -76v-346h-130z" />
    <glyph glyph-name="o" unicode="o" horiz-adv-x="537" 
d="M496 252q0 -61 -12.5 -110t-39.5 -83.5t-70.5 -53.5t-106.5 -19t-106 18t-70 52t-38.5 82.5t-11.5 109.5t12.5 110t39.5 83.5t71 53.5t107 19t106 -18t69.5 -51.5t38 -82.5t11.5 -110zM364 290q0 57 -23 90.5t-71 33.5t-72.5 -34.5t-24.5 -91.5v-78q0 -57 23 -90.5
t71 -33.5t72.5 34.5t24.5 91.5v78z" />
    <glyph glyph-name="p" unicode="p" horiz-adv-x="565" 
d="M523 251q0 -56 -10 -104.5t-33 -84t-60 -56t-90 -20.5q-30 0 -52.5 6.5t-38.5 16t-26.5 21t-16.5 21.5h-1v-256h-130v705h123v-63h1q10 15 23.5 29t31.5 24.5t41 17t52 6.5q52 0 87.5 -19t57.5 -54t31.5 -83.5t9.5 -106.5zM391 283q0 60 -26.5 93t-69.5 33
q-22 0 -40.5 -9.5t-31.5 -25.5t-20.5 -37t-7.5 -45v-80q0 -27 8 -49.5t21 -38t30.5 -24.5t36.5 -9q52 0 76 37.5t24 91.5v63z" />
    <glyph glyph-name="q" unicode="q" horiz-adv-x="568" 
d="M370 -205v256h-1q-22 -26 -54.5 -45.5t-90.5 -19.5q-52 0 -87 19t-56.5 54t-30.5 83t-9 107q0 56 10.5 104.5t33.5 84t60 56t90 20.5q30 0 52.5 -6.5t39.5 -17t29 -24.5t20 -28h1l6 62h116v-705h-129zM370 288q0 27 -8 49.5t-21 38t-31 24.5t-37 9q-27 0 -45.5 -10
t-30.5 -27.5t-17.5 -41t-5.5 -50.5v-63q0 -60 26 -93t70 -33q22 0 40.5 9.5t31.5 25t20.5 36.5t7.5 44v82z" />
    <glyph glyph-name="r" unicode="r" horiz-adv-x="378" 
d="M354 390q-3 1 -13 2t-24 1q-27 0 -49.5 -9.5t-38.5 -25.5t-24.5 -36.5t-8.5 -42.5v-279h-129v500h123v-74h1q4 8 14.5 23t27.5 29.5t42.5 25t59.5 10.5q19 0 25 -2z" />
    <glyph glyph-name="s" unicode="s" horiz-adv-x="448" 
d="M407 145q0 -75 -51 -117t-152 -42q-44 0 -83.5 9t-77.5 26l6 102q34 -19 69.5 -30t73.5 -11q49 0 66.5 17t17.5 38q0 25 -18 39t-63 29l-12 4q-31 10 -56.5 23t-44 32t-28.5 44.5t-10 59.5q0 72 52 109t143 37q42 0 79.5 -9.5t62.5 -22.5l-6 -101q-35 19 -70 28t-58 9
q-38 0 -54.5 -12.5t-16.5 -32.5q0 -22 17.5 -35.5t56.5 -27.5l34 -12q25 -9 47.5 -21t39.5 -30t26.5 -43t9.5 -59z" />
    <glyph glyph-name="t" unicode="t" horiz-adv-x="397" 
d="M364 8q-13 -5 -45 -13.5t-72 -8.5q-72 0 -104.5 35.5t-32.5 107.5l1 267h-107v104h107l1 125l129 15l-1 -140h124v-104h-124l-1 -245q0 -33 13 -47.5t42 -14.5q17 0 36.5 5t27.5 8z" />
    <glyph glyph-name="u" unicode="u" horiz-adv-x="573" 
d="M388 0l-8 61h-1q-7 -9 -21 -22t-34.5 -24.5t-45.5 -20t-55 -8.5q-35 0 -64 9.5t-50 30t-32.5 52.5t-11.5 76v346h129v-306q0 -18 3.5 -35t13 -30t25.5 -21t40 -8q19 0 37 7.5t31.5 20.5t21.5 30t8 36v306h129v-500h-115z" />
    <glyph glyph-name="v" unicode="v" horiz-adv-x="525" 
d="M341 0h-157l-165 500h134l113 -397h1l113 397h126z" />
    <glyph glyph-name="w" unicode="w" horiz-adv-x="767" 
d="M623 0h-149l-90 378h-1l-91 -378h-148l-125 500h123l82 -378h1l86 378h153l86 -378h1l81 378h116z" />
    <glyph glyph-name="x" unicode="x" horiz-adv-x="515" 
d="M362 0l-104 176h-1l-104 -176h-145l166 259l-153 241h144l93 -159h1l93 159h142l-153 -242l166 -258h-145z" />
    <glyph glyph-name="y" unicode="y" horiz-adv-x="539" 
d="M527 500q-11 -32 -28 -79t-38 -104t-45.5 -122t-51 -132.5t-54 -136t-54.5 -131.5h-140q33 70 56.5 126.5t31.5 78.5l-189 500h135l120 -376h1l127 376h129z" />
    <glyph glyph-name="z" unicode="z" horiz-adv-x="489" 
d="M223 104l226 -1v-103h-421l232 396l-197 1v103h392z" />
    <glyph glyph-name="braceleft" unicode="{" horiz-adv-x="433" 
d="M332 -133q-46 0 -82 8.5t-60.5 29.5t-37.5 56.5t-13 88.5q0 31 2 61.5t2 60.5q0 20 -7 34.5t-18.5 24.5t-27 16.5t-32.5 10.5v97q34 8 59.5 27.5t25.5 58.5q0 30 -2 60.5t-2 61.5q0 99 46.5 141t144.5 42h25v-109q-20 0 -35.5 -3t-26.5 -11t-16.5 -24t-5.5 -41
q0 -30 1 -59.5t1 -59.5q0 -45 -20 -81.5t-64 -50.5v-1q44 -14 64 -51t20 -81q0 -30 -1 -59.5t-1 -59.5q0 -49 21 -63.5t63 -15.5v-109h-23z" />
    <glyph glyph-name="bar" unicode="|" horiz-adv-x="326" 
d="M109 -205v910h108v-910h-108z" />
    <glyph glyph-name="braceright" unicode="}" horiz-adv-x="433" 
d="M101 746q46 0 82 -8.5t60.5 -29.5t37.5 -56.5t13 -88.5q0 -31 -2 -61.5t-2 -60.5q0 -20 7 -34.5t18.5 -24.5t27 -16.5t32.5 -10.5v-97q-34 -8 -59.5 -27.5t-25.5 -58.5q0 -30 2 -60.5t2 -61.5q0 -99 -47 -141t-144 -42h-25v109q20 0 35.5 3t26.5 11t16.5 23.5t5.5 41.5
q0 30 -1 59.5t-1 59.5q0 45 20 81.5t64 50.5v1q-44 14 -64 51t-20 81q0 30 1 59.5t1 59.5q0 49 -21 63.5t-63 15.5v109h23z" />
    <glyph glyph-name="asciitilde" unicode="~" 
d="M528 287q-8 -5 -22 -12.5t-32 -14t-38.5 -11t-42.5 -4.5q-32 0 -59 7.5t-52 17t-50 17t-53 7.5q-18 0 -37 -4.5t-36.5 -11t-31.5 -14t-22 -12.5l-5 101q8 5 21.5 12.5t31.5 14t38.5 11t42.5 4.5q33 0 60.5 -7.5t52.5 -17t50 -17t52 -7.5q18 0 37 4.5t36.5 11t31 14
t21.5 12.5z" />
    <glyph glyph-name="uni00A0" unicode="&#xa0;" horiz-adv-x="229" 
 />
    <glyph glyph-name="exclamdown" unicode="&#xa1;" horiz-adv-x="255" 
d="M60 -169l6 427h123l6 -427h-135zM207 435q0 -34 -22.5 -56t-56.5 -22q-35 0 -57 22t-22 56t22.5 55.5t56.5 21.5q35 0 57 -21.5t22 -55.5z" />
    <glyph glyph-name="cent" unicode="&#xa2;" 
d="M456 100q-22 -11 -46.5 -18.5t-56.5 -9.5v-72h-78v71q-51 5 -84.5 26t-54 55t-28.5 80t-8 102q0 54 9 99t29.5 78.5t54 55t82.5 28.5v72h78v-71q38 -4 64.5 -13.5t32.5 -13.5l-6 -103q-5 2 -15 6.5t-24 9t-31.5 8t-36.5 3.5q-48 0 -76.5 -33t-28.5 -99v-54
q0 -69 31 -100.5t74 -31.5q33 0 61 8t52 20z" />
    <glyph glyph-name="sterling" unicode="&#xa3;" 
d="M94 0v115q11 3 27 12t30.5 24.5t25 38t10.5 53.5v4q0 3 -1 9.5t-2 19.5t-2 36h-88l6 84h75q-3 30 -4 48t-2 28t-1 15v8q0 49 14.5 84t40 57.5t59.5 33.5t73 11q35 0 62 -5t51 -15l-5 -105q-23 10 -45 15t-48 5q-38 0 -56.5 -23t-18.5 -65v-6q0 -3 1 -12.5t2 -26.5t4 -47
h168l-6 -84h-155q2 -21 3 -34t1.5 -20t0.5 -11v-5q0 -33 -8.5 -56.5t-20.5 -40t-25 -26t-22 -12.5v-1h232v-106h-376z" />
    <glyph glyph-name="currency" unicode="&#xa4;" 
d="M472 74l-75 76q-24 -15 -52 -23.5t-58 -8.5t-58 8.5t-52 23.5l-75 -76l-74 74l75 76q-14 24 -22.5 51.5t-8.5 57.5q0 31 8.5 58.5t22.5 51.5l-75 76l74 74l75 -76q50 31 110 31t110 -31l75 76l75 -74l-76 -76q14 -24 22.5 -51.5t8.5 -58.5q0 -30 -8.5 -57.5t-22.5 -51.5
l76 -76zM403 333q0 24 -9 45.5t-25 37.5t-37 25t-45 9t-45 -9t-37 -25t-25 -37.5t-9 -45.5t9 -45t25 -37t37 -25t45 -9t45 9t37 25t25 37t9 45z" />
    <glyph glyph-name="yen" unicode="&#xa5;" 
d="M389 353h124l-6 -84h-156v-73h162l-6 -84h-156v-112h-127v112h-162l6 84h156v73h-162l6 84h119l-135 314h130l108 -280h1l109 280h124z" />
    <glyph glyph-name="brokenbar" unicode="&#xa6;" horiz-adv-x="326" 
d="M109 399v306h108v-306h-108zM109 -205v305h108v-305h-108z" />
    <glyph glyph-name="section" unicode="&#xa7;" horiz-adv-x="497" 
d="M457 282q0 -33 -9.5 -58t-23 -43t-28.5 -29t-25 -15v-1q7 -5 18 -14.5t20.5 -24.5t16.5 -34.5t7 -44.5q0 -47 -16 -81t-43 -56t-63 -32.5t-76 -10.5q-45 0 -80 7t-67 18l6 109q34 -14 63.5 -21.5t68.5 -7.5q38 0 57.5 17.5t19.5 48.5q0 17 -7 29.5t-18 22.5t-25 17
t-29 12l-29 11q-136 50 -136 179q0 31 9.5 55t23.5 41t28.5 27.5t25.5 15.5v1q-8 4 -18.5 14.5t-20 26t-16.5 37t-7 48.5q0 42 16 72.5t42.5 51t61.5 30.5t74 10q46 0 77 -7t55 -15l-6 -105q-26 11 -54.5 18t-56.5 7q-32 0 -55.5 -13.5t-23.5 -45.5t23 -48.5t58 -30.5
l30 -11q63 -24 97.5 -65.5t34.5 -111.5zM341 270q0 30 -17 49.5t-46 30.5l-49 19q-6 -2 -15.5 -7.5t-17.5 -15t-14 -23t-6 -31.5q0 -33 17.5 -52t51.5 -32l44 -17q6 2 15 7t17.5 14.5t14 23.5t5.5 34z" />
    <glyph glyph-name="dieresis" unicode="&#xa8;" horiz-adv-x="382" 
d="M150 632q0 -30 -21.5 -51.5t-52.5 -21.5t-52.5 21.5t-21.5 51.5q0 31 21.5 52.5t52.5 21.5t52.5 -21.5t21.5 -52.5zM379 632q0 -30 -21.5 -51.5t-51.5 -21.5q-31 0 -52.5 21.5t-21.5 51.5q0 31 21.5 52.5t52.5 21.5q30 0 51.5 -21.5t21.5 -52.5z" />
    <glyph glyph-name="copyright" unicode="&#xa9;" horiz-adv-x="791" 
d="M752 333q0 -79 -28 -144t-76 -112t-113 -73t-140 -26t-140 26t-113 73.5t-76 113t-28 144.5t28 144.5t76 112t113 72.5t140 26t140 -26t113 -73t76 -113t28 -145zM666 335q0 60 -21 110.5t-58 86.5t-86 56.5t-106 20.5t-106 -20t-85 -56.5t-57 -87t-21 -110.5
q0 -61 21 -111.5t57.5 -87t85.5 -56.5t106 -20t106 20t85.5 56.5t57.5 87t21 111.5zM495 186q-8 -6 -33 -15.5t-65 -9.5q-41 0 -67.5 14t-43 38t-23 55t-6.5 66q0 37 8 68.5t26 54.5t46.5 36.5t70.5 13.5q30 0 53 -7t31 -12l-6 -78q-8 5 -27 11.5t-40 6.5q-29 0 -48.5 -17.5
t-19.5 -56.5v-41q0 -22 5.5 -36t15 -22.5t21.5 -11.5t26 -3q20 0 41 9t30 14z" />
    <glyph glyph-name="ordfeminine" unicode="&#xaa;" horiz-adv-x="376" 
d="M236 211l-2 41h-1q-3 -6 -10.5 -14.5t-19.5 -16.5t-28.5 -13.5t-37.5 -5.5q-57 0 -85 29t-28 75q0 28 12 49t33.5 34t50 19.5t61.5 6.5q13 0 26 -1t18 -2v21q0 22 -15.5 32t-42.5 10q-28 0 -57 -8.5t-54 -19.5l-6 81q25 12 59.5 20t72.5 8q30 0 57.5 -5t47.5 -18
t32 -36.5t12 -60.5v-225h-95zM225 355q-4 1 -12 2t-19 1q-30 0 -47 -13t-17 -33q0 -17 9.5 -25t26.5 -8q21 0 40 17.5t19 44.5v14z" />
    <glyph glyph-name="guillemotleft" unicode="&#xab;" horiz-adv-x="603" 
d="M434 38l-138 231l138 231h130l-138 -231l138 -231h-130zM178 38l-139 231l139 231h130l-139 -231l139 -231h-130z" />
    <glyph glyph-name="logicalnot" unicode="&#xac;" 
d="M422 172v179h-376v100h483v-279h-107z" />
    <glyph glyph-name="uni00AD" unicode="&#xad;" horiz-adv-x="352" 
d="M39 228v105h273v-105h-273z" />
    <glyph glyph-name="registered" unicode="&#xae;" horiz-adv-x="630" 
d="M600 407q0 -63 -22.5 -114.5t-61 -88.5t-90.5 -57.5t-112 -20.5t-112 20.5t-90.5 58t-60.5 89.5t-22 115t22 114.5t60.5 88.5t90.5 57.5t112 20.5t112 -20.5t90.5 -58t61 -89.5t22.5 -115zM526 409q0 46 -16.5 85t-45 67t-67 43.5t-82.5 15.5t-82.5 -15.5t-67 -43.5
t-45 -67t-16.5 -85q0 -47 16.5 -86.5t45 -67.5t67 -43.5t82.5 -15.5t82.5 15.5t67 43.5t45 67.5t16.5 86.5zM347 284l-19 76q-2 8 -8 12t-12 4h-18v-92h-61v248h95q41 0 65.5 -16t24.5 -58q0 -15 -6 -26t-14 -17.5t-16 -10t-12 -4.5v-1q5 -2 12.5 -8t11.5 -18l26 -89h-69z
M350 454q0 13 -7 20.5t-27 7.5h-26v-58h22q21 0 29.5 8.5t8.5 21.5z" />
    <glyph glyph-name="macron" unicode="&#xaf;" horiz-adv-x="382" 
d="M12 604v107h357v-107h-357z" />
    <glyph glyph-name="degree" unicode="&#xb0;" horiz-adv-x="420" 
d="M384 507q0 -36 -13.5 -67.5t-37.5 -55.5t-55.5 -37.5t-67.5 -13.5t-68 13.5t-56 37.5t-37.5 55.5t-13.5 67.5t13.5 68t37.5 56t56 37.5t68 13.5t67.5 -13.5t55.5 -37.5t37.5 -56t13.5 -68zM291 507q0 35 -23.5 59t-57.5 24q-35 0 -58 -24t-23 -59q0 -34 23 -58t58 -24
q34 0 57.5 24t23.5 58z" />
    <glyph glyph-name="plusminus" unicode="&#xb1;" 
d="M341 269v-170h-107v170h-188v102h188v170h107v-170h188v-102h-188zM46 -28v101h483v-101h-483z" />
    <glyph glyph-name="uni00B2" unicode="&#xb2;" horiz-adv-x="360" 
d="M31 211v94q13 11 32.5 28t40 36.5t38.5 38t29 32.5q16 20 26 37.5t10 36.5q0 21 -14.5 34.5t-43.5 13.5q-25 0 -55 -13t-50 -29l-6 91q27 18 61.5 28.5t72.5 10.5q31 0 58 -8t46.5 -24t31 -39t11.5 -53q0 -23 -6 -43t-17.5 -39t-26.5 -37t-33 -37q-8 -8 -20 -19l-24 -21
q-12 -10 -22 -18.5t-12 -11.5v-1h161v-88h-288z" />
    <glyph glyph-name="uni00B3" unicode="&#xb3;" horiz-adv-x="370" 
d="M330 336q0 -33 -14.5 -58.5t-38.5 -42t-55.5 -25t-65.5 -8.5q-37 0 -67.5 6.5t-50.5 14.5l5 88q21 -11 48.5 -17.5t54.5 -6.5q35 0 54 14.5t19 38.5q0 14 -7.5 23.5t-19.5 15.5t-27 8.5t-30 2.5h-70v78l69 1q38 1 59.5 14.5t21.5 36.5q0 19 -15.5 31.5t-47.5 12.5
q-25 0 -55 -8.5t-51 -19.5l-5 86q23 11 55 19t71 8q31 0 59.5 -6.5t50.5 -21t35 -37t13 -54.5q0 -23 -8.5 -40t-20.5 -28.5t-25.5 -18t-22.5 -8.5v-1q10 -2 24 -7.5t27 -17t22 -29.5t9 -44z" />
    <glyph glyph-name="acute" unicode="&#xb4;" horiz-adv-x="382" 
d="M206 560h-115l68 151h131z" />
    <glyph glyph-name="uni00B5" unicode="&#xb5;" horiz-adv-x="575" 
d="M393 0l-8 64h-2q-5 -9 -16 -22t-28 -25.5t-38.5 -21.5t-45.5 -9q-31 0 -49 9.5t-23 15.5q2 -20 6 -78t4 -138h-124v705h130v-306q0 -18 3.5 -35t13 -30t25 -21t39.5 -8q19 0 37 8t31.5 21t21.5 30t8 36v305h130v-500h-115z" />
    <glyph glyph-name="paragraph" unicode="&#xb6;" horiz-adv-x="684" 
d="M294 0v200q-53 0 -99 16.5t-79.5 47t-52.5 74t-19 97.5t19 97t53 73t79 46t98 16h107v-667h-106zM478 0v667h107v-667h-107zM294 568q-27 0 -51.5 -8.5t-43.5 -25.5t-30 -41.5t-11 -57.5q0 -32 11 -57t29.5 -42.5t43 -27t52.5 -9.5v269z" />
    <glyph glyph-name="periodcentered" unicode="&#xb7;" horiz-adv-x="257" 
d="M215 281q0 -36 -25.5 -61.5t-61.5 -25.5q-18 0 -33.5 7t-27 18.5t-18.5 27.5t-7 34t7 33.5t18.5 27.5t27 18.5t33.5 6.5q36 0 61.5 -25t25.5 -61z" />
    <glyph glyph-name="cedilla" unicode="&#xb8;" horiz-adv-x="382" 
d="M294 -120q0 -24 -7 -46t-23.5 -38.5t-44 -26t-69.5 -9.5q-14 0 -29.5 1t-33.5 4l3 79q8 -1 14 -1.5t12 -0.5q38 0 54 17.5t16 49.5q0 20 -4 39h103q4 -17 6.5 -34t2.5 -34z" />
    <glyph glyph-name="uni00B9" unicode="&#xb9;" horiz-adv-x="289" 
d="M112 211v321q-11 -5 -39 -16t-60 -22l-5 90q20 6 39 14t35.5 16t29.5 15t21 11h89v-429h-110z" />
    <glyph glyph-name="ordmasculine" unicode="&#xba;" horiz-adv-x="381" 
d="M354 380q0 -40 -9 -72.5t-28.5 -56t-51 -36.5t-76.5 -13t-76 12.5t-49.5 35.5t-27 55.5t-8.5 72.5q0 39 8.5 72t28 56.5t51 36.5t76.5 13t76 -12.5t50 -35.5t27.5 -55.5t8.5 -72.5zM244 404q0 69 -52 69q-26 0 -40.5 -17.5t-14.5 -52.5v-49q0 -36 14 -53t39 -17t39.5 18
t14.5 53v49z" />
    <glyph glyph-name="guillemotright" unicode="&#xbb;" horiz-adv-x="603" 
d="M426 38h-130l138 231l-138 231h130l138 -231zM169 38h-130l139 231l-139 231h130l139 -231z" />
    <glyph glyph-name="onequarter" unicode="&#xbc;" horiz-adv-x="940" 
d="M112 211v321q-11 -5 -39 -16t-60 -22l-5 90q20 6 39 14t35.5 16t29.5 15t21 11h89v-429h-110zM298 -80h-123l407 833h122zM851 93v-93h-109v93h-192v95l151 241h150v-249h58v-87h-58zM743 354h-1l-110 -174v-1h25q15 0 31 0.5t31 0.5h24v174z" />
    <glyph glyph-name="onehalf" unicode="&#xbd;" horiz-adv-x="891" 
d="M112 211v321q-11 -5 -39 -16t-60 -22l-5 90q20 6 39 14t35.5 16t29.5 15t21 11h89v-429h-110zM268 -80h-123l407 833h122zM562 0v94q13 11 32.5 28t40 36.5t38.5 38t29 32.5q16 20 26 37.5t10 36.5q0 21 -14.5 34.5t-43.5 13.5q-25 0 -55 -13t-50 -29l-6 91
q27 18 61.5 28.5t72.5 10.5q31 0 58 -8t46.5 -24t31 -39t11.5 -53q0 -23 -6 -43t-17.5 -39t-26.5 -37t-33 -37q-8 -8 -20 -19l-24 -21q-12 -10 -22 -18.5t-12 -11.5v-1h161v-88h-288z" />
    <glyph glyph-name="threequarters" unicode="&#xbe;" horiz-adv-x="1021" 
d="M330 336q0 -33 -14.5 -58.5t-38.5 -42t-55.5 -25t-65.5 -8.5q-37 0 -67.5 6.5t-50.5 14.5l5 88q21 -11 48.5 -17.5t54.5 -6.5q35 0 54 14.5t19 38.5q0 14 -7.5 23.5t-19.5 15.5t-27 8.5t-30 2.5h-70v78l69 1q38 1 59.5 14.5t21.5 36.5q0 19 -15.5 31.5t-47.5 12.5
q-25 0 -55 -8.5t-51 -19.5l-5 86q23 11 55 19t71 8q31 0 59.5 -6.5t50.5 -21t35 -37t13 -54.5q0 -23 -8.5 -40t-20.5 -28.5t-25.5 -18t-22.5 -8.5v-1q10 -2 24 -7.5t27 -17t22 -29.5t9 -44zM369 -80h-123l407 833h122zM932 93v-93h-109v93h-192v95l151 241h150v-249h58v-87
h-58zM824 354h-1l-110 -174v-1h25q15 0 31 0.5t31 0.5h24v174z" />
    <glyph glyph-name="questiondown" unicode="&#xbf;" horiz-adv-x="445" 
d="M383 -154q-13 -8 -49.5 -19.5t-92.5 -11.5q-47 0 -82 12.5t-58.5 33.5t-35.5 49.5t-12 60.5q0 26 7 48t18.5 41.5t27 38t32.5 36.5l9 10q23 26 30 46t7 49v17h123q1 -8 1 -15v-14q0 -50 -16 -81.5t-45 -63.5l-9 -10q-26 -28 -38 -48.5t-12 -41.5q0 -29 21 -44t53 -15
q20 0 38 4t33 9t26.5 11t17.5 10zM327 433q0 -34 -22.5 -56t-56.5 -22q-35 0 -57 22t-22 56t22 56t57 22q34 0 56.5 -22t22.5 -56z" />
    <glyph glyph-name="Agrave" unicode="&#xc0;" horiz-adv-x="659" 
d="M481 0l-45 153h-230l-46 -153h-133l216 667h167l212 -667h-141zM322 551h-1l-86 -291h173zM292 720l-84 151h131l68 -151h-115z" />
    <glyph glyph-name="Aacute" unicode="&#xc1;" horiz-adv-x="659" 
d="M481 0l-45 153h-230l-46 -153h-133l216 667h167l212 -667h-141zM322 551h-1l-86 -291h173zM348 720h-114l68 151h131z" />
    <glyph glyph-name="Acircumflex" unicode="&#xc2;" horiz-adv-x="659" 
d="M481 0l-45 153h-230l-46 -153h-133l216 667h167l212 -667h-141zM322 551h-1l-86 -291h173zM380 720l-56 73l-56 -73h-118l108 151h133l108 -151h-119z" />
    <glyph glyph-name="Atilde" unicode="&#xc3;" horiz-adv-x="659" 
d="M481 0l-45 153h-230l-46 -153h-133l216 667h167l212 -667h-141zM322 551h-1l-86 -291h173zM496 873q0 -39 -7.5 -64.5t-21 -40.5t-32.5 -21t-41 -6q-15 0 -32 5t-33.5 11.5t-31 11.5t-24.5 5q-16 0 -22 -9.5t-6 -23.5h-94q0 39 7.5 64.5t21 40.5t32 21t40.5 6
q15 0 32 -5.5t33.5 -11.5t31.5 -11.5t24 -5.5q16 0 22 10t6 24h95z" />
    <glyph glyph-name="Adieresis" unicode="&#xc4;" horiz-adv-x="659" 
d="M481 0l-45 153h-230l-46 -153h-133l216 667h167l212 -667h-141zM322 551h-1l-86 -291h173zM279 792q0 -30 -21.5 -51.5t-52.5 -21.5q-30 0 -52 21.5t-22 51.5q0 31 22 52.5t52 21.5q31 0 52.5 -21.5t21.5 -52.5zM509 792q0 -30 -21.5 -51.5t-52.5 -21.5q-30 0 -52 21.5
t-22 51.5q0 31 22 52.5t52 21.5q31 0 52.5 -21.5t21.5 -52.5z" />
    <glyph glyph-name="Aring" unicode="&#xc5;" horiz-adv-x="659" 
d="M435 811q0 -23 -9 -42.5t-24.5 -34t-36.5 -23t-46 -8.5t-46 8.5t-36.5 23t-24.5 34t-9 42.5q0 47 33 77.5t83 30.5t83 -30.5t33 -77.5zM362 811q0 19 -12.5 31.5t-30.5 12.5t-30.5 -12.5t-12.5 -31.5q0 -18 12.5 -31t30.5 -13t30.5 13t12.5 31zM481 0l-45 153h-230
l-46 -153h-133l216 667h167l212 -667h-141zM322 551h-1l-86 -291h173z" />
    <glyph glyph-name="AE" unicode="&#xc6;" horiz-adv-x="872" 
d="M441 0v171h-198l-84 -171h-140l339 667h460v-108l-245 -1v-159h223v-107h-223v-183l250 -1v-108h-382zM441 581h-1l-149 -303h150v303z" />
    <glyph glyph-name="Ccedilla" unicode="&#xc7;" horiz-adv-x="500" 
d="M478 28q-36 -20 -79 -31.5t-98 -11.5q-83 0 -134.5 26.5t-80.5 73t-39 110t-10 137.5q0 76 12.5 140.5t44.5 111t87 72.5t140 26q45 0 81.5 -9t68.5 -23l-6 -110q-32 14 -66 23.5t-68 9.5q-81 0 -120 -52t-39 -143v-90q0 -54 12 -91.5t33 -60t50 -32.5t64 -10
q39 0 73.5 13t67.5 32zM374 -120q0 -24 -7 -46t-23.5 -38.5t-44 -26t-69.5 -9.5q-14 0 -29.5 1t-33.5 4l3 79q8 -1 14 -1.5t12 -0.5q38 0 54 17.5t16 49.5q0 20 -4 39h103q4 -17 6.5 -34t2.5 -34z" />
    <glyph glyph-name="Egrave" unicode="&#xc8;" horiz-adv-x="511" 
d="M73 0v667h389v-108l-257 -1v-159h235v-107h-235v-183l257 -1v-108h-389zM237 720l-84 151h131l68 -151h-115z" />
    <glyph glyph-name="Eacute" unicode="&#xc9;" horiz-adv-x="511" 
d="M73 0v667h389v-108l-257 -1v-159h235v-107h-235v-183l257 -1v-108h-389zM302 720h-114l68 151h131z" />
    <glyph glyph-name="Ecircumflex" unicode="&#xca;" horiz-adv-x="511" 
d="M73 0v667h389v-108l-257 -1v-159h235v-107h-235v-183l257 -1v-108h-389zM323 720l-56 73l-56 -73h-118l108 151h133l108 -151h-119z" />
    <glyph glyph-name="Edieresis" unicode="&#xcb;" horiz-adv-x="511" 
d="M73 0v667h389v-108l-257 -1v-159h235v-107h-235v-183l257 -1v-108h-389zM227 792q0 -30 -21.5 -51.5t-52.5 -21.5q-30 0 -52 21.5t-22 51.5q0 31 22 52.5t52 21.5q31 0 52.5 -21.5t21.5 -52.5zM456 792q0 -30 -21.5 -51.5t-52.5 -21.5q-30 0 -52 21.5t-22 51.5
q0 31 22 52.5t52 21.5q31 0 52.5 -21.5t21.5 -52.5z" />
    <glyph glyph-name="Igrave" unicode="&#xcc;" horiz-adv-x="280" 
d="M73 0v667h133v-667h-133zM112 720l-84 151h131l68 -151h-115z" />
    <glyph glyph-name="Iacute" unicode="&#xcd;" horiz-adv-x="280" 
d="M73 0v667h133v-667h-133zM168 720h-114l68 151h131z" />
    <glyph glyph-name="Icircumflex" unicode="&#xce;" horiz-adv-x="280" 
d="M73 0v667h133v-667h-133zM197 720l-56 73l-56 -73h-118l108 151h133l108 -151h-119z" />
    <glyph glyph-name="Idieresis" unicode="&#xcf;" horiz-adv-x="280" 
d="M73 0v667h133v-667h-133zM99 792q0 -30 -21.5 -51.5t-52.5 -21.5q-30 0 -52 21.5t-22 51.5q0 31 22 52.5t52 21.5q31 0 52.5 -21.5t21.5 -52.5zM328 792q0 -30 -21.5 -51.5t-52.5 -21.5q-30 0 -52 21.5t-22 51.5q0 31 22 52.5t52 21.5q31 0 52.5 -21.5t21.5 -52.5z" />
    <glyph glyph-name="Eth" unicode="&#xd0;" horiz-adv-x="642" 
d="M595 337q0 -85 -14.5 -148t-51 -105t-98.5 -63t-156 -21h-193v282h-72v103h72v282h221q91 0 148.5 -21t89 -63t43 -103.5t11.5 -142.5zM459 385q0 50 -12 83.5t-33.5 54t-51 29t-63.5 8.5h-84v-175h99v-103h-99v-175h51q103 0 148 40.5t45 137.5v100z" />
    <glyph glyph-name="Ntilde" unicode="&#xd1;" horiz-adv-x="661" 
d="M448 0l-254 464h-1l2 -464h-122v667h141l254 -464h1l-3 464h122v-667h-140zM495 873q0 -39 -7.5 -64.5t-21 -40.5t-32.5 -21t-41 -6q-15 0 -32 5t-33.5 11.5t-31 11.5t-24.5 5q-16 0 -22 -9.5t-6 -23.5h-94q0 39 7.5 64.5t21 40.5t32 21t40.5 6q15 0 32 -5.5t33.5 -11.5
t31.5 -11.5t24 -5.5q16 0 22 10t6 24h95z" />
    <glyph glyph-name="Ograve" unicode="&#xd2;" horiz-adv-x="621" 
d="M584 334q0 -79 -11 -143.5t-42 -110t-85 -70.5t-140 -25t-138.5 25t-81.5 70.5t-39 110t-10 143.5q0 78 11.5 142.5t42 110t84.5 70.5t140 25t138.5 -25t81.5 -70.5t39 -110t10 -142.5zM449 377q0 196 -137 196q-140 0 -140 -196v-87q0 -196 137 -196q140 0 140 196v87z
M295 720l-84 151h131l68 -151h-115z" />
    <glyph glyph-name="Oacute" unicode="&#xd3;" horiz-adv-x="621" 
d="M584 334q0 -79 -11 -143.5t-42 -110t-85 -70.5t-140 -25t-138.5 25t-81.5 70.5t-39 110t-10 143.5q0 78 11.5 142.5t42 110t84.5 70.5t140 25t138.5 -25t81.5 -70.5t39 -110t10 -142.5zM449 377q0 196 -137 196q-140 0 -140 -196v-87q0 -196 137 -196q140 0 140 196v87z
M351 720h-114l68 151h131z" />
    <glyph glyph-name="Ocircumflex" unicode="&#xd4;" horiz-adv-x="621" 
d="M584 334q0 -79 -11 -143.5t-42 -110t-85 -70.5t-140 -25t-138.5 25t-81.5 70.5t-39 110t-10 143.5q0 78 11.5 142.5t42 110t84.5 70.5t140 25t138.5 -25t81.5 -70.5t39 -110t10 -142.5zM449 377q0 196 -137 196q-140 0 -140 -196v-87q0 -196 137 -196q140 0 140 196v87z
M377 720l-56 73l-56 -73h-118l108 151h133l108 -151h-119z" />
    <glyph glyph-name="Otilde" unicode="&#xd5;" horiz-adv-x="621" 
d="M584 334q0 -79 -11 -143.5t-42 -110t-85 -70.5t-140 -25t-138.5 25t-81.5 70.5t-39 110t-10 143.5q0 78 11.5 142.5t42 110t84.5 70.5t140 25t138.5 -25t81.5 -70.5t39 -110t10 -142.5zM449 377q0 196 -137 196q-140 0 -140 -196v-87q0 -196 137 -196q140 0 140 196v87z
M491 873q0 -39 -7.5 -64.5t-21 -40.5t-32.5 -21t-41 -6q-15 0 -32 5t-33.5 11.5t-31 11.5t-24.5 5q-16 0 -22 -9.5t-6 -23.5h-94q0 39 7.5 64.5t21 40.5t32 21t40.5 6q15 0 32 -5.5t33.5 -11.5t31.5 -11.5t24 -5.5q16 0 22 10t6 24h95z" />
    <glyph glyph-name="Odieresis" unicode="&#xd6;" horiz-adv-x="621" 
d="M584 334q0 -79 -11 -143.5t-42 -110t-85 -70.5t-140 -25t-138.5 25t-81.5 70.5t-39 110t-10 143.5q0 78 11.5 142.5t42 110t84.5 70.5t140 25t138.5 -25t81.5 -70.5t39 -110t10 -142.5zM449 377q0 196 -137 196q-140 0 -140 -196v-87q0 -196 137 -196q140 0 140 196v87z
M278 792q0 -30 -21.5 -51.5t-52.5 -21.5q-30 0 -52 21.5t-22 51.5q0 31 22 52.5t52 21.5q31 0 52.5 -21.5t21.5 -52.5zM508 792q0 -30 -21.5 -51.5t-52.5 -21.5q-30 0 -52 21.5t-22 51.5q0 31 22 52.5t52 21.5q31 0 52.5 -21.5t21.5 -52.5z" />
    <glyph glyph-name="multiply" unicode="&#xd7;" 
d="M446 88l-158 157l-157 -157l-75 75l157 157l-157 158l75 74l157 -157l158 157l74 -74l-157 -158l157 -157z" />
    <glyph glyph-name="Oslash" unicode="&#xd8;" horiz-adv-x="617" 
d="M584 334q0 -79 -11 -143.5t-42 -110t-85 -70.5t-140 -25q-38 0 -71 6l-30 -98h-65l36 114q-43 17 -70 47.5t-42.5 72.5t-21 94t-5.5 113q0 78 11.5 142.5t42 110t84.5 70.5t140 25q39 0 71 -6l30 98h65l-35 -114q43 -17 70 -47.5t42 -72.5t20.5 -94t5.5 -112zM455 377
q0 115 -50 162l-143 -444q21 -6 47 -6q75 0 110.5 51t35.5 150v87zM359 572q-21 6 -47 6q-74 0 -109.5 -51t-35.5 -150v-87q0 -57 11.5 -97.5t37.5 -64.5z" />
    <glyph glyph-name="Ugrave" unicode="&#xd9;" horiz-adv-x="645" 
d="M571 232q0 -133 -65.5 -190t-189.5 -57q-58 0 -103.5 12.5t-76.5 41.5t-47 76.5t-16 116.5v435h132v-435q0 -66 29.5 -101.5t87.5 -35.5q60 0 88.5 35t28.5 102v435h132v-435zM292 720l-84 151h131l68 -151h-115z" />
    <glyph glyph-name="Uacute" unicode="&#xda;" horiz-adv-x="645" 
d="M571 232q0 -133 -65.5 -190t-189.5 -57q-58 0 -103.5 12.5t-76.5 41.5t-47 76.5t-16 116.5v435h132v-435q0 -66 29.5 -101.5t87.5 -35.5q60 0 88.5 35t28.5 102v435h132v-435zM347 720h-114l68 151h131z" />
    <glyph glyph-name="Ucircumflex" unicode="&#xdb;" horiz-adv-x="645" 
d="M571 232q0 -133 -65.5 -190t-189.5 -57q-58 0 -103.5 12.5t-76.5 41.5t-47 76.5t-16 116.5v435h132v-435q0 -66 29.5 -101.5t87.5 -35.5q60 0 88.5 35t28.5 102v435h132v-435zM382 720l-56 73l-56 -73h-118l108 151h133l108 -151h-119z" />
    <glyph glyph-name="Udieresis" unicode="&#xdc;" horiz-adv-x="645" 
d="M571 232q0 -133 -65.5 -190t-189.5 -57q-58 0 -103.5 12.5t-76.5 41.5t-47 76.5t-16 116.5v435h132v-435q0 -66 29.5 -101.5t87.5 -35.5q60 0 88.5 35t28.5 102v435h132v-435zM277 792q0 -30 -21.5 -51.5t-52.5 -21.5q-30 0 -52 21.5t-22 51.5q0 31 22 52.5t52 21.5
q31 0 52.5 -21.5t21.5 -52.5zM506 792q0 -30 -21.5 -51.5t-52.5 -21.5q-30 0 -52 21.5t-22 51.5q0 31 22 52.5t52 21.5q31 0 52.5 -21.5t21.5 -52.5z" />
    <glyph glyph-name="Yacute" unicode="&#xdd;" horiz-adv-x="586" 
d="M359 229v-229h-133v229l-219 438h144l144 -318h1l146 318h136zM332 720h-114l68 151h131z" />
    <glyph glyph-name="Thorn" unicode="&#xde;" horiz-adv-x="569" 
d="M534 349q0 -223 -261 -223h-68v-126h-132v667h132v-114h87q114 0 178 -47.5t64 -156.5zM400 341q0 53 -26.5 79t-89.5 26h-79v-214h59q39 0 65.5 8t42 22t22 34.5t6.5 44.5z" />
    <glyph glyph-name="germandbls" unicode="&#xdf;" horiz-adv-x="595" 
d="M551 144q0 -33 -12 -61.5t-35.5 -50t-58 -34t-79.5 -12.5q-39 0 -68.5 8t-40.5 13l6 101q11 -5 35.5 -14t48.5 -9q32 0 50 16.5t18 39.5t-13.5 40t-39.5 41l-19 18q-29 27 -44 55.5t-15 63.5q0 33 10 58t27 47l14 20q13 17 20 31.5t7 32.5q0 9 -3 21t-11 23t-21.5 18.5
t-35.5 7.5q-44 0 -68 -28t-24 -90v-500h-130v500q0 112 57.5 165.5t170.5 53.5q57 0 94.5 -14.5t60 -37.5t32 -51t9.5 -54q0 -36 -11 -57t-31 -46l-16 -20q-12 -16 -18.5 -28t-6.5 -29q0 -15 9.5 -27.5t38.5 -38.5l19 -18q17 -16 31 -31.5t23.5 -33.5t14.5 -39.5t5 -49.5z
" />
    <glyph glyph-name="agrave" unicode="&#xe0;" horiz-adv-x="530" 
d="M349 0l-7 65h-1q-5 -10 -16.5 -23.5t-30.5 -26t-45.5 -21t-60.5 -8.5q-77 0 -114.5 41.5t-37.5 106.5q0 41 16.5 72t46 52t70.5 31.5t91 10.5q24 0 44 -1.5t28 -2.5v43q0 40 -26 56t-70 16q-42 0 -80 -10t-75 -27l-6 102q39 18 85 28t98 10q43 0 80.5 -7t65 -26.5t43 -53
t15.5 -87.5v-340h-113zM332 217q-5 1 -19 2t-34 1q-19 0 -39 -3.5t-36.5 -12.5t-27 -24t-10.5 -37q0 -31 18.5 -46.5t47.5 -15.5q19 0 37.5 8.5t32 23.5t22 36t8.5 45v23zM252 570l-84 151h131l68 -151h-115z" />
    <glyph glyph-name="aacute" unicode="&#xe1;" horiz-adv-x="530" 
d="M349 0l-7 65h-1q-5 -10 -16.5 -23.5t-30.5 -26t-45.5 -21t-60.5 -8.5q-77 0 -114.5 41.5t-37.5 106.5q0 41 16.5 72t46 52t70.5 31.5t91 10.5q24 0 44 -1.5t28 -2.5v43q0 40 -26 56t-70 16q-42 0 -80 -10t-75 -27l-6 102q39 18 85 28t98 10q43 0 80.5 -7t65 -26.5t43 -53
t15.5 -87.5v-340h-113zM332 217q-5 1 -19 2t-34 1q-19 0 -39 -3.5t-36.5 -12.5t-27 -24t-10.5 -37q0 -31 18.5 -46.5t47.5 -15.5q19 0 37.5 8.5t32 23.5t22 36t8.5 45v23zM287 570h-114l68 151h131z" />
    <glyph glyph-name="acircumflex" unicode="&#xe2;" horiz-adv-x="530" 
d="M349 0l-7 65h-1q-5 -10 -16.5 -23.5t-30.5 -26t-45.5 -21t-60.5 -8.5q-77 0 -114.5 41.5t-37.5 106.5q0 41 16.5 72t46 52t70.5 31.5t91 10.5q24 0 44 -1.5t28 -2.5v43q0 40 -26 56t-70 16q-42 0 -80 -10t-75 -27l-6 102q39 18 85 28t98 10q43 0 80.5 -7t65 -26.5t43 -53
t15.5 -87.5v-340h-113zM332 217q-5 1 -19 2t-34 1q-19 0 -39 -3.5t-36.5 -12.5t-27 -24t-10.5 -37q0 -31 18.5 -46.5t47.5 -15.5q19 0 37.5 8.5t32 23.5t22 36t8.5 45v23zM324 570l-56 73l-56 -73h-118l108 151h132l109 -151h-119z" />
    <glyph glyph-name="atilde" unicode="&#xe3;" horiz-adv-x="530" 
d="M349 0l-7 65h-1q-5 -10 -16.5 -23.5t-30.5 -26t-45.5 -21t-60.5 -8.5q-77 0 -114.5 41.5t-37.5 106.5q0 41 16.5 72t46 52t70.5 31.5t91 10.5q24 0 44 -1.5t28 -2.5v43q0 40 -26 56t-70 16q-42 0 -80 -10t-75 -27l-6 102q39 18 85 28t98 10q43 0 80.5 -7t65 -26.5t43 -53
t15.5 -87.5v-340h-113zM332 217q-5 1 -19 2t-34 1q-19 0 -39 -3.5t-36.5 -12.5t-27 -24t-10.5 -37q0 -31 18.5 -46.5t47.5 -15.5q19 0 37.5 8.5t32 23.5t22 36t8.5 45v23zM438 723q0 -39 -7.5 -64.5t-21 -40.5t-32.5 -21t-41 -6q-15 0 -32 5t-33.5 11.5t-31 11.5t-24.5 5
q-16 0 -22 -9.5t-6 -23.5h-94q0 39 7.5 64.5t21 40.5t32 21t40.5 6q15 0 32.5 -5.5t34 -11.5t31 -11.5t24.5 -5.5q16 0 21.5 10t5.5 24h95z" />
    <glyph glyph-name="adieresis" unicode="&#xe4;" horiz-adv-x="530" 
d="M349 0l-7 65h-1q-5 -10 -16.5 -23.5t-30.5 -26t-45.5 -21t-60.5 -8.5q-77 0 -114.5 41.5t-37.5 106.5q0 41 16.5 72t46 52t70.5 31.5t91 10.5q24 0 44 -1.5t28 -2.5v43q0 40 -26 56t-70 16q-42 0 -80 -10t-75 -27l-6 102q39 18 85 28t98 10q43 0 80.5 -7t65 -26.5t43 -53
t15.5 -87.5v-340h-113zM332 217q-5 1 -19 2t-34 1q-19 0 -39 -3.5t-36.5 -12.5t-27 -24t-10.5 -37q0 -31 18.5 -46.5t47.5 -15.5q19 0 37.5 8.5t32 23.5t22 36t8.5 45v23zM228 647q0 -31 -21.5 -52.5t-52.5 -21.5t-52.5 21.5t-21.5 52.5t21.5 52.5t52.5 21.5t52.5 -21.5
t21.5 -52.5zM457 647q0 -31 -21.5 -52.5t-52.5 -21.5t-52.5 21.5t-21.5 52.5t21.5 52.5t52.5 21.5t52.5 -21.5t21.5 -52.5z" />
    <glyph glyph-name="aring" unicode="&#xe5;" horiz-adv-x="530" 
d="M349 0l-7 65h-1q-5 -10 -16.5 -23.5t-30.5 -26t-45.5 -21t-60.5 -8.5q-77 0 -114.5 41.5t-37.5 106.5q0 41 16.5 72t46 52t70.5 31.5t91 10.5q24 0 44 -1.5t28 -2.5v43q0 40 -26 56t-70 16q-42 0 -80 -10t-75 -27l-6 102q39 18 85 28t98 10q43 0 80.5 -7t65 -26.5t43 -53
t15.5 -87.5v-340h-113zM332 217q-5 1 -19 2t-34 1q-19 0 -39 -3.5t-36.5 -12.5t-27 -24t-10.5 -37q0 -31 18.5 -46.5t47.5 -15.5q19 0 37.5 8.5t32 23.5t22 36t8.5 45v23zM377 661q0 -23 -9 -42.5t-25 -34t-37 -23t-46 -8.5t-46 8.5t-36.5 23t-24.5 34t-9 42.5q0 47 33 77.5
t83 30.5t83.5 -30.5t33.5 -77.5zM303 661q0 19 -12.5 31.5t-30.5 12.5t-30.5 -12.5t-12.5 -31.5q0 -18 12.5 -31t30.5 -13t30.5 13t12.5 31z" />
    <glyph glyph-name="ae" unicode="&#xe6;" horiz-adv-x="804" 
d="M767 262q0 -7 -0.5 -15.5t-1 -16.5t-0.5 -14h-305v-11q0 -22 6 -42.5t20.5 -37t37.5 -26.5t58 -10q43 0 81.5 10t72.5 26l6 -101q-29 -17 -75 -27.5t-103 -10.5q-48 0 -81.5 10.5t-55 26t-33 32t-14.5 28.5h-1q-6 -12 -19.5 -28.5t-36.5 -32t-55.5 -26t-74.5 -10.5
q-81 0 -119 41t-38 108q0 42 16 74t45 53.5t70.5 32t91.5 10.5q25 0 45 -1.5t28 -3.5v39q0 40 -26 56t-70 16q-42 0 -80 -10t-75 -26l-6 101q39 18 83.5 28t97.5 10q38 0 65 -8t44.5 -19.5t26.5 -23.5t12 -21h1q6 9 18.5 21t32.5 23.5t47 19.5t62 8q104 0 153 -58.5
t49 -181.5v-12zM332 223q-5 2 -19.5 3.5t-32.5 1.5q-23 0 -44 -5t-36.5 -14.5t-24.5 -25t-9 -36.5q0 -33 18.5 -49.5t47.5 -16.5q19 0 37.5 9t32 24.5t22 37t8.5 47.5v24zM647 302q0 22 -3 44t-12 39.5t-26 28.5t-45 11q-27 0 -46.5 -10.5t-32 -28t-18.5 -39.5t-6 -45h189z
" />
    <glyph glyph-name="ccedilla" unicode="&#xe7;" horiz-adv-x="424" 
d="M395 17q-30 -15 -65 -23t-82 -8q-62 0 -102.5 19t-64.5 53.5t-33.5 83.5t-9.5 109t11.5 108.5t37.5 83t69 53t106 18.5q25 0 46.5 -3.5t38 -8.5t27.5 -9.5t14 -6.5l-6 -104q-4 2 -14 6.5t-24.5 9t-31.5 8t-36 3.5q-48 0 -76.5 -33t-28.5 -99v-54q0 -69 31 -100.5
t74 -31.5q33 0 61 8t51 20zM317 -120q0 -24 -7 -46t-23.5 -38.5t-44 -26t-69.5 -9.5q-14 0 -29.5 1t-33.5 4l3 79q8 -1 14 -1.5t12 -0.5q38 0 54 17.5t16 49.5q0 20 -4 39h103q4 -17 6.5 -34t2.5 -34z" />
    <glyph glyph-name="egrave" unicode="&#xe8;" horiz-adv-x="509" 
d="M473 262q0 -7 -0.5 -15.5t-1 -16.5t-0.5 -14h-305v-11q0 -22 6 -42.5t20.5 -37t37.5 -26.5t57 -10q43 0 82 10t72 26l6 -101q-29 -17 -73.5 -27.5t-100.5 -10.5q-70 0 -115.5 18.5t-72 52.5t-37 82.5t-10.5 108.5q0 59 12.5 108t40 84t72 54.5t108.5 19.5
q104 0 153 -58.5t49 -181.5v-12zM352 302q0 22 -3 44t-12 39.5t-26 28.5t-45 11q-27 0 -46.5 -10.5t-31.5 -28t-18 -39.5t-6 -45h188zM240 570l-84 151h131l68 -151h-115z" />
    <glyph glyph-name="eacute" unicode="&#xe9;" horiz-adv-x="509" 
d="M473 262q0 -7 -0.5 -15.5t-1 -16.5t-0.5 -14h-305v-11q0 -22 6 -42.5t20.5 -37t37.5 -26.5t57 -10q43 0 82 10t72 26l6 -101q-29 -17 -73.5 -27.5t-100.5 -10.5q-70 0 -115.5 18.5t-72 52.5t-37 82.5t-10.5 108.5q0 59 12.5 108t40 84t72 54.5t108.5 19.5
q104 0 153 -58.5t49 -181.5v-12zM352 302q0 22 -3 44t-12 39.5t-26 28.5t-45 11q-27 0 -46.5 -10.5t-31.5 -28t-18 -39.5t-6 -45h188zM286 570h-114l68 151h131z" />
    <glyph glyph-name="ecircumflex" unicode="&#xea;" horiz-adv-x="509" 
d="M473 262q0 -7 -0.5 -15.5t-1 -16.5t-0.5 -14h-305v-11q0 -22 6 -42.5t20.5 -37t37.5 -26.5t57 -10q43 0 82 10t72 26l6 -101q-29 -17 -73.5 -27.5t-100.5 -10.5q-70 0 -115.5 18.5t-72 52.5t-37 82.5t-10.5 108.5q0 59 12.5 108t40 84t72 54.5t108.5 19.5
q104 0 153 -58.5t49 -181.5v-12zM352 302q0 22 -3 44t-12 39.5t-26 28.5t-45 11q-27 0 -46.5 -10.5t-31.5 -28t-18 -39.5t-6 -45h188zM318 570l-56 73l-56 -73h-118l108 151h132l109 -151h-119z" />
    <glyph glyph-name="edieresis" unicode="&#xeb;" horiz-adv-x="509" 
d="M473 262q0 -7 -0.5 -15.5t-1 -16.5t-0.5 -14h-305v-11q0 -22 6 -42.5t20.5 -37t37.5 -26.5t57 -10q43 0 82 10t72 26l6 -101q-29 -17 -73.5 -27.5t-100.5 -10.5q-70 0 -115.5 18.5t-72 52.5t-37 82.5t-10.5 108.5q0 59 12.5 108t40 84t72 54.5t108.5 19.5
q104 0 153 -58.5t49 -181.5v-12zM352 302q0 22 -3 44t-12 39.5t-26 28.5t-45 11q-27 0 -46.5 -10.5t-31.5 -28t-18 -39.5t-6 -45h188zM221 648q0 -31 -21.5 -52.5t-52.5 -21.5t-52.5 21.5t-21.5 52.5t21.5 52.5t52.5 21.5t52.5 -21.5t21.5 -52.5zM450 648q0 -31 -21.5 -52.5
t-52.5 -21.5t-52.5 21.5t-21.5 52.5t21.5 52.5t52.5 21.5t52.5 -21.5t21.5 -52.5z" />
    <glyph glyph-name="igrave" unicode="&#xec;" horiz-adv-x="269" 
d="M71 0v500h130v-500h-130zM112 570l-84 151h131l68 -151h-115z" />
    <glyph glyph-name="iacute" unicode="&#xed;" horiz-adv-x="269" 
d="M71 0v500h130v-500h-130zM157 570h-114l68 151h131z" />
    <glyph glyph-name="icircumflex" unicode="&#xee;" horiz-adv-x="269" 
d="M71 0v500h130v-500h-130zM192 570l-56 73l-56 -73h-118l108 151h132l109 -151h-119z" />
    <glyph glyph-name="idieresis" unicode="&#xef;" horiz-adv-x="269" 
d="M71 0v500h130v-500h-130zM95 647q0 -31 -21.5 -52.5t-52.5 -21.5t-52.5 21.5t-21.5 52.5t21.5 52.5t52.5 21.5t52.5 -21.5t21.5 -52.5zM324 647q0 -31 -21.5 -52.5t-52.5 -21.5t-52.5 21.5t-21.5 52.5t21.5 52.5t52.5 21.5t52.5 -21.5t21.5 -52.5z" />
    <glyph glyph-name="eth" unicode="&#xf0;" horiz-adv-x="544" 
d="M173 216q0 -58 23 -94t74 -36t76 36t25 96v43q0 58 -23 94t-74 36t-76 -36t-25 -96v-43zM503 250q0 -61 -12.5 -110t-40 -83t-71.5 -52.5t-107 -18.5t-106.5 18t-71.5 50.5t-40.5 78.5t-12.5 102q0 121 52.5 187t146.5 66q60 0 95 -27h2q-11 25 -23.5 47.5t-26.5 42.5
l-157 -41v75l111 29q-23 27 -43.5 50t-36.5 41h148q11 -14 23.5 -28.5t25.5 -31.5l125 33v-75l-80 -21q40 -62 70 -144t30 -188z" />
    <glyph glyph-name="ntilde" unicode="&#xf1;" horiz-adv-x="581" 
d="M386 0v306q0 18 -3.5 35t-12.5 30t-25.5 21t-42.5 8q-21 0 -39.5 -7.5t-32.5 -20.5t-22.5 -29.5t-8.5 -34.5v-308h-130v500h124v-61h2q7 9 20.5 22t34 24.5t46.5 20t58 8.5q37 0 67 -9.5t51 -30t32.5 -52.5t11.5 -76v-346h-130zM469 723q0 -39 -7.5 -64.5t-21 -40.5
t-32.5 -21t-41 -6q-15 0 -32 5t-33.5 11.5t-31 11.5t-24.5 5q-16 0 -22 -9.5t-6 -23.5h-94q0 39 7.5 64.5t21 40.5t32 21t40.5 6q15 0 32.5 -5.5t34 -11.5t31 -11.5t24.5 -5.5q16 0 21.5 10t5.5 24h95z" />
    <glyph glyph-name="ograve" unicode="&#xf2;" horiz-adv-x="537" 
d="M496 252q0 -61 -12.5 -110t-39.5 -83.5t-70.5 -53.5t-106.5 -19t-106 18t-70 52t-38.5 82.5t-11.5 109.5t12.5 110t39.5 83.5t71 53.5t107 19t106 -18t69.5 -51.5t38 -82.5t11.5 -110zM364 290q0 57 -23 90.5t-71 33.5t-72.5 -34.5t-24.5 -91.5v-78q0 -57 23 -90.5
t71 -33.5t72.5 34.5t24.5 91.5v78zM240 570l-84 151h131l68 -151h-115z" />
    <glyph glyph-name="oacute" unicode="&#xf3;" horiz-adv-x="537" 
d="M496 252q0 -61 -12.5 -110t-39.5 -83.5t-70.5 -53.5t-106.5 -19t-106 18t-70 52t-38.5 82.5t-11.5 109.5t12.5 110t39.5 83.5t71 53.5t107 19t106 -18t69.5 -51.5t38 -82.5t11.5 -110zM364 290q0 57 -23 90.5t-71 33.5t-72.5 -34.5t-24.5 -91.5v-78q0 -57 23 -90.5
t71 -33.5t72.5 34.5t24.5 91.5v78zM291 570h-114l68 151h131z" />
    <glyph glyph-name="ocircumflex" unicode="&#xf4;" horiz-adv-x="537" 
d="M496 252q0 -61 -12.5 -110t-39.5 -83.5t-70.5 -53.5t-106.5 -19t-106 18t-70 52t-38.5 82.5t-11.5 109.5t12.5 110t39.5 83.5t71 53.5t107 19t106 -18t69.5 -51.5t38 -82.5t11.5 -110zM364 290q0 57 -23 90.5t-71 33.5t-72.5 -34.5t-24.5 -91.5v-78q0 -57 23 -90.5
t71 -33.5t72.5 34.5t24.5 91.5v78zM324 570l-56 73l-56 -73h-118l108 151h132l109 -151h-119z" />
    <glyph glyph-name="otilde" unicode="&#xf5;" horiz-adv-x="537" 
d="M496 252q0 -61 -12.5 -110t-39.5 -83.5t-70.5 -53.5t-106.5 -19t-106 18t-70 52t-38.5 82.5t-11.5 109.5t12.5 110t39.5 83.5t71 53.5t107 19t106 -18t69.5 -51.5t38 -82.5t11.5 -110zM364 290q0 57 -23 90.5t-71 33.5t-72.5 -34.5t-24.5 -91.5v-78q0 -57 23 -90.5
t71 -33.5t72.5 34.5t24.5 91.5v78zM438 723q0 -39 -7.5 -64.5t-21 -40.5t-32.5 -21t-41 -6q-15 0 -32 5t-33.5 11.5t-31 11.5t-24.5 5q-16 0 -22 -9.5t-6 -23.5h-94q0 39 7.5 64.5t21 40.5t32 21t40.5 6q15 0 32.5 -5.5t34 -11.5t31 -11.5t24.5 -5.5q16 0 21.5 10t5.5 24h95
z" />
    <glyph glyph-name="odieresis" unicode="&#xf6;" horiz-adv-x="537" 
d="M496 252q0 -61 -12.5 -110t-39.5 -83.5t-70.5 -53.5t-106.5 -19t-106 18t-70 52t-38.5 82.5t-11.5 109.5t12.5 110t39.5 83.5t71 53.5t107 19t106 -18t69.5 -51.5t38 -82.5t11.5 -110zM364 290q0 57 -23 90.5t-71 33.5t-72.5 -34.5t-24.5 -91.5v-78q0 -57 23 -90.5
t71 -33.5t72.5 34.5t24.5 91.5v78zM228 647q0 -31 -21.5 -52.5t-52.5 -21.5t-52.5 21.5t-21.5 52.5t21.5 52.5t52.5 21.5t52.5 -21.5t21.5 -52.5zM458 647q0 -31 -21.5 -52.5t-52.5 -21.5t-52.5 21.5t-21.5 52.5t21.5 52.5t52.5 21.5t52.5 -21.5t21.5 -52.5z" />
    <glyph glyph-name="divide" unicode="&#xf7;" 
d="M46 269v102h483v-102h-483zM354 128q0 -28 -19.5 -47.5t-47.5 -19.5t-47 19.5t-19 47.5t19 47.5t47 19.5t47.5 -19.5t19.5 -47.5zM354 511q0 -28 -19.5 -47.5t-47.5 -19.5t-47 19.5t-19 47.5t19 47.5t47 19.5t47.5 -19.5t19.5 -47.5z" />
    <glyph glyph-name="oslash" unicode="&#xf8;" horiz-adv-x="537" 
d="M496 252q0 -61 -12.5 -110t-39.5 -83.5t-70.5 -53.5t-106.5 -19q-26 0 -47 3l-31 -100h-62l35 115q-66 26 -93.5 88.5t-27.5 155.5q0 61 12.5 110t39.5 83.5t71 53.5t107 19q24 0 45 -3l30 99h64l-34 -113q66 -27 93 -89.5t27 -155.5zM370 290q0 63 -31 94l-96 -302
q6 -1 12 -1.5t12 -0.5q26 0 45.5 10t32 28t19 42t6.5 52v78zM293 418q-5 2 -11 2h-12q-53 0 -78 -37.5t-25 -94.5v-78q0 -61 31 -94z" />
    <glyph glyph-name="ugrave" unicode="&#xf9;" horiz-adv-x="573" 
d="M388 0l-8 61h-1q-7 -9 -21 -22t-34.5 -24.5t-45.5 -20t-55 -8.5q-35 0 -64 9.5t-50 30t-32.5 52.5t-11.5 76v346h129v-306q0 -18 3.5 -35t13 -30t25.5 -21t40 -8q19 0 37 7.5t31.5 20.5t21.5 30t8 36v306h129v-500h-115zM261 570l-84 151h131l68 -151h-115z" />
    <glyph glyph-name="uacute" unicode="&#xfa;" horiz-adv-x="573" 
d="M388 0l-8 61h-1q-7 -9 -21 -22t-34.5 -24.5t-45.5 -20t-55 -8.5q-35 0 -64 9.5t-50 30t-32.5 52.5t-11.5 76v346h129v-306q0 -18 3.5 -35t13 -30t25.5 -21t40 -8q19 0 37 7.5t31.5 20.5t21.5 30t8 36v306h129v-500h-115zM310 570h-114l68 151h131z" />
    <glyph glyph-name="ucircumflex" unicode="&#xfb;" horiz-adv-x="573" 
d="M388 0l-8 61h-1q-7 -9 -21 -22t-34.5 -24.5t-45.5 -20t-55 -8.5q-35 0 -64 9.5t-50 30t-32.5 52.5t-11.5 76v346h129v-306q0 -18 3.5 -35t13 -30t25.5 -21t40 -8q19 0 37 7.5t31.5 20.5t21.5 30t8 36v306h129v-500h-115zM342 570l-56 73l-56 -73h-118l108 151h132
l109 -151h-119z" />
    <glyph glyph-name="udieresis" unicode="&#xfc;" horiz-adv-x="573" 
d="M388 0l-8 61h-1q-7 -9 -21 -22t-34.5 -24.5t-45.5 -20t-55 -8.5q-35 0 -64 9.5t-50 30t-32.5 52.5t-11.5 76v346h129v-306q0 -18 3.5 -35t13 -30t25.5 -21t40 -8q19 0 37 7.5t31.5 20.5t21.5 30t8 36v306h129v-500h-115zM248 647q0 -31 -21.5 -52.5t-52.5 -21.5
t-52.5 21.5t-21.5 52.5t21.5 52.5t52.5 21.5t52.5 -21.5t21.5 -52.5zM477 647q0 -31 -21.5 -52.5t-52.5 -21.5t-52.5 21.5t-21.5 52.5t21.5 52.5t52.5 21.5t52.5 -21.5t21.5 -52.5z" />
    <glyph glyph-name="yacute" unicode="&#xfd;" horiz-adv-x="539" 
d="M527 500q-11 -32 -28 -79t-38 -104t-45.5 -122t-51 -132.5t-54 -136t-54.5 -131.5h-140q33 70 56.5 126.5t31.5 78.5l-189 500h135l120 -376h1l127 376h129zM291 570h-114l68 151h131z" />
    <glyph glyph-name="thorn" unicode="&#xfe;" horiz-adv-x="565" 
d="M523 251q0 -56 -10 -104.5t-33 -84t-60 -56t-90 -20.5q-30 0 -52.5 6.5t-38.5 16t-26.5 21t-16.5 21.5h-1v-256h-130v910h130v-256h1q10 13 23 24.5t30.5 20.5t39.5 14.5t51 5.5q52 0 87.5 -19t56.5 -54t30 -83.5t9 -106.5zM391 283q0 60 -26.5 93t-69.5 33
q-22 0 -40.5 -9.5t-31.5 -25.5t-20.5 -37t-7.5 -45v-80q0 -27 8 -49.5t21 -38t30.5 -24.5t36.5 -9q52 0 76 37.5t24 91.5v63z" />
    <glyph glyph-name="ydieresis" unicode="&#xff;" horiz-adv-x="539" 
d="M527 500q-11 -32 -28 -79t-38 -104t-45.5 -122t-51 -132.5t-54 -136t-54.5 -131.5h-140q33 70 56.5 126.5t31.5 78.5l-189 500h135l120 -376h1l127 376h129zM227 647q0 -31 -21.5 -52.5t-52.5 -21.5t-52.5 21.5t-21.5 52.5t21.5 52.5t52.5 21.5t52.5 -21.5t21.5 -52.5z
M457 647q0 -31 -21.5 -52.5t-52.5 -21.5t-52.5 21.5t-21.5 52.5t21.5 52.5t52.5 21.5t52.5 -21.5t21.5 -52.5z" />
    <glyph glyph-name="Amacron" unicode="&#x100;" horiz-adv-x="659" 
d="M481 0l-45 153h-230l-46 -153h-133l216 667h167l212 -667h-141zM322 551h-1l-86 -291h173zM150 742v107h357v-107h-357z" />
    <glyph glyph-name="amacron" unicode="&#x101;" horiz-adv-x="530" 
d="M349 0l-7 65h-1q-5 -10 -16.5 -23.5t-30.5 -26t-45.5 -21t-60.5 -8.5q-77 0 -114.5 41.5t-37.5 106.5q0 41 16.5 72t46 52t70.5 31.5t91 10.5q24 0 44 -1.5t28 -2.5v43q0 40 -26 56t-70 16q-42 0 -80 -10t-75 -27l-6 102q39 18 85 28t98 10q43 0 80.5 -7t65 -26.5t43 -53
t15.5 -87.5v-340h-113zM332 217q-5 1 -19 2t-34 1q-19 0 -39 -3.5t-36.5 -12.5t-27 -24t-10.5 -37q0 -31 18.5 -46.5t47.5 -15.5q19 0 37.5 8.5t32 23.5t22 36t8.5 45v23zM86 601v107h357v-107h-357z" />
    <glyph glyph-name="Abreve" unicode="&#x102;" horiz-adv-x="659" 
d="M481 0l-45 153h-230l-46 -153h-133l216 667h167l212 -667h-141zM322 551h-1l-86 -291h173zM490 871q0 -72 -43.5 -114t-118.5 -42t-119 42t-44 114h102q0 -27 16 -46t45 -19t44.5 19t15.5 47z" />
    <glyph glyph-name="abreve" unicode="&#x103;" horiz-adv-x="530" 
d="M349 0l-7 65h-1q-5 -10 -16.5 -23.5t-30.5 -26t-45.5 -21t-60.5 -8.5q-77 0 -114.5 41.5t-37.5 106.5q0 41 16.5 72t46 52t70.5 31.5t91 10.5q24 0 44 -1.5t28 -2.5v43q0 40 -26 56t-70 16q-42 0 -80 -10t-75 -27l-6 102q39 18 85 28t98 10q43 0 80.5 -7t65 -26.5t43 -53
t15.5 -87.5v-340h-113zM332 217q-5 1 -19 2t-34 1q-19 0 -39 -3.5t-36.5 -12.5t-27 -24t-10.5 -37q0 -31 18.5 -46.5t47.5 -15.5q19 0 37.5 8.5t32 23.5t22 36t8.5 45v23zM426 721q0 -72 -43.5 -114t-118.5 -42t-119 42t-44 114h102q0 -27 16 -46t45 -19t44.5 19t15.5 47z
" />
    <glyph glyph-name="Aogonek" unicode="&#x104;" horiz-adv-x="659" 
d="M592 0q-7 0 -21 -7.5t-27.5 -19.5t-23.5 -28t-10 -34q0 -35 16.5 -52t54.5 -17q15 0 25 2l3 -79q-17 -3 -32.5 -4t-29.5 -1q-42 0 -70 9.5t-44.5 26t-23.5 38.5t-7 46q0 22 9.5 42t22 35.5t26 26.5t21.5 16l-45 153h-230l-46 -153h-133l216 667h167l212 -667h-30z
M322 551h-1l-86 -291h173z" />
    <glyph glyph-name="aogonek" unicode="&#x105;" horiz-adv-x="530" 
d="M477 -235q-17 -3 -32.5 -4t-29.5 -1q-42 0 -70 9.5t-44.5 26t-23.5 38.5t-7 46q0 22 9.5 42t22 35.5t26 26.5t21.5 16l-7 65h-1q-5 -10 -16.5 -23.5t-30.5 -26t-45.5 -21t-60.5 -8.5q-77 0 -114.5 41.5t-37.5 106.5q0 41 16.5 72t46 52t70.5 31.5t91 10.5q24 0 44 -1.5
t28 -2.5v43q0 40 -26 56t-70 16q-42 0 -80 -10t-75 -27l-6 102q39 18 85 28t98 10q43 0 80.5 -7t65 -26.5t43 -53t15.5 -87.5v-340h-4q-6 0 -19.5 -7.5t-27 -19.5t-23.5 -28t-10 -34q0 -35 16.5 -52t54.5 -17q15 0 25 2zM332 217q-5 1 -19 2t-34 1q-19 0 -39 -3.5
t-36.5 -12.5t-27 -24t-10.5 -37q0 -31 18.5 -46.5t47.5 -15.5q19 0 37.5 8.5t32 23.5t22 36t8.5 45v23z" />
    <glyph glyph-name="Cacute" unicode="&#x106;" horiz-adv-x="500" 
d="M478 28q-36 -20 -79 -31.5t-98 -11.5q-83 0 -134.5 26.5t-80.5 73t-39 110t-10 137.5q0 76 12.5 140.5t44.5 111t87 72.5t140 26q45 0 81.5 -9t68.5 -23l-6 -110q-32 14 -66 23.5t-68 9.5q-81 0 -120 -52t-39 -143v-90q0 -54 12 -91.5t33 -60t50 -32.5t64 -10
q39 0 73.5 13t67.5 32zM300 720h-114l68 151h131z" />
    <glyph glyph-name="cacute" unicode="&#x107;" horiz-adv-x="424" 
d="M395 17q-30 -15 -65 -23t-82 -8q-62 0 -102.5 19t-64.5 53.5t-33.5 83.5t-9.5 109t11.5 108.5t37.5 83t69 53t106 18.5q25 0 46.5 -3.5t38 -8.5t27.5 -9.5t14 -6.5l-6 -104q-4 2 -14 6.5t-24.5 9t-31.5 8t-36 3.5q-48 0 -76.5 -33t-28.5 -99v-54q0 -69 31 -100.5
t74 -31.5q33 0 61 8t51 20zM261 570h-114l68 151h131z" />
    <glyph glyph-name="Ccircumflex" unicode="&#x108;" horiz-adv-x="500" 
d="M478 28q-36 -20 -79 -31.5t-98 -11.5q-83 0 -134.5 26.5t-80.5 73t-39 110t-10 137.5q0 76 12.5 140.5t44.5 111t87 72.5t140 26q45 0 81.5 -9t68.5 -23l-6 -110q-32 14 -66 23.5t-68 9.5q-81 0 -120 -52t-39 -143v-90q0 -54 12 -91.5t33 -60t50 -32.5t64 -10
q39 0 73.5 13t67.5 32zM360 720l-56 73l-56 -73h-118l108 151h133l108 -151h-119z" />
    <glyph glyph-name="ccircumflex" unicode="&#x109;" horiz-adv-x="424" 
d="M395 17q-30 -15 -65 -23t-82 -8q-62 0 -102.5 19t-64.5 53.5t-33.5 83.5t-9.5 109t11.5 108.5t37.5 83t69 53t106 18.5q25 0 46.5 -3.5t38 -8.5t27.5 -9.5t14 -6.5l-6 -104q-4 2 -14 6.5t-24.5 9t-31.5 8t-36 3.5q-48 0 -76.5 -33t-28.5 -99v-54q0 -69 31 -100.5
t74 -31.5q33 0 61 8t51 20zM301 570l-56 73l-56 -73h-118l108 151h132l109 -151h-119z" />
    <glyph glyph-name="Cdotaccent" unicode="&#x10a;" horiz-adv-x="500" 
d="M478 28q-36 -20 -79 -31.5t-98 -11.5q-83 0 -134.5 26.5t-80.5 73t-39 110t-10 137.5q0 76 12.5 140.5t44.5 111t87 72.5t140 26q45 0 81.5 -9t68.5 -23l-6 -110q-32 14 -66 23.5t-68 9.5q-81 0 -120 -52t-39 -143v-90q0 -54 12 -91.5t33 -60t50 -32.5t64 -10
q39 0 73.5 13t67.5 32zM381 795q0 -33 -23.5 -56t-55.5 -23q-33 0 -56 23t-23 56q0 32 23 55.5t56 23.5q32 0 55.5 -23.5t23.5 -55.5z" />
    <glyph glyph-name="cdotaccent" unicode="&#x10b;" horiz-adv-x="424" 
d="M395 17q-30 -15 -65 -23t-82 -8q-62 0 -102.5 19t-64.5 53.5t-33.5 83.5t-9.5 109t11.5 108.5t37.5 83t69 53t106 18.5q25 0 46.5 -3.5t38 -8.5t27.5 -9.5t14 -6.5l-6 -104q-4 2 -14 6.5t-24.5 9t-31.5 8t-36 3.5q-48 0 -76.5 -33t-28.5 -99v-54q0 -69 31 -100.5
t74 -31.5q33 0 61 8t51 20zM325 648q0 -33 -23.5 -56t-55.5 -23q-33 0 -56 23t-23 56q0 32 23 55.5t56 23.5q32 0 55.5 -23.5t23.5 -55.5z" />
    <glyph glyph-name="Ccaron" unicode="&#x10c;" horiz-adv-x="500" 
d="M478 28q-36 -20 -79 -31.5t-98 -11.5q-83 0 -134.5 26.5t-80.5 73t-39 110t-10 137.5q0 76 12.5 140.5t44.5 111t87 72.5t140 26q45 0 81.5 -9t68.5 -23l-6 -110q-32 14 -66 23.5t-68 9.5q-81 0 -120 -52t-39 -143v-90q0 -54 12 -91.5t33 -60t50 -32.5t64 -10
q39 0 73.5 13t67.5 32zM350 720h-133l-108 151h119l56 -72l56 72h118z" />
    <glyph glyph-name="ccaron" unicode="&#x10d;" horiz-adv-x="424" 
d="M395 17q-30 -15 -65 -23t-82 -8q-62 0 -102.5 19t-64.5 53.5t-33.5 83.5t-9.5 109t11.5 108.5t37.5 83t69 53t106 18.5q25 0 46.5 -3.5t38 -8.5t27.5 -9.5t14 -6.5l-6 -104q-4 2 -14 6.5t-24.5 9t-31.5 8t-36 3.5q-48 0 -76.5 -33t-28.5 -99v-54q0 -69 31 -100.5
t74 -31.5q33 0 61 8t51 20zM297 570h-133l-108 151h119l56 -72l56 72h118z" />
    <glyph glyph-name="Dcaron" unicode="&#x10e;" horiz-adv-x="633" 
d="M586 337q0 -85 -15 -148t-51.5 -105t-98 -63t-155.5 -21h-193v667h221q91 0 148 -21t89 -63t43.5 -103.5t11.5 -142.5zM450 385q0 50 -12 83.5t-33.5 54t-51 29t-63.5 8.5h-85v-453h52q103 0 148 40.5t45 137.5v100zM383 720h-133l-108 151h119l56 -72l56 72h118z" />
    <glyph glyph-name="dcaron" unicode="&#x10f;" horiz-adv-x="570" 
d="M382 0l-6 61h-1q-20 -29 -54.5 -52t-92.5 -23q-52 0 -88 19t-58 54t-31.5 83t-9.5 107q0 56 10.5 104.5t33.5 84t60 56t90 20.5q30 0 52 -6.5t38 -16t27 -21t17 -21.5h1v256h129v-705h-117zM370 288q0 27 -8 49.5t-21 38t-30.5 24.5t-36.5 9q-53 0 -76.5 -37.5
t-23.5 -91.5v-63q0 -60 26 -93t70 -33q22 0 40 9.5t31.5 25.5t21 37t7.5 45v80zM655 592h-99l50 195h126z" />
    <glyph glyph-name="Dcroat" unicode="&#x110;" horiz-adv-x="642" 
d="M595 337q0 -85 -14.5 -148t-51 -105t-98.5 -63t-156 -21h-193v282h-72v103h72v282h221q91 0 148.5 -21t89 -63t43 -103.5t11.5 -142.5zM459 385q0 50 -12 83.5t-33.5 54t-51 29t-63.5 8.5h-84v-175h99v-103h-99v-175h51q103 0 148 40.5t45 137.5v100z" />
    <glyph glyph-name="dcroat" unicode="&#x111;" horiz-adv-x="570" 
d="M499 533v-533h-117l-6 61h-1q-20 -29 -54.5 -52t-92.5 -23q-52 0 -88 19.5t-58 54t-31.5 81.5t-9.5 101q0 51 10 98t33.5 82.5t60.5 57t91 21.5q29 0 51 -6.5t38 -16t27 -21t17 -21.5h1v97h-74v84h74v88h129v-88h57v-84h-57zM370 275q0 27 -8 49.5t-21 38t-30.5 24.5
t-36.5 9q-53 0 -76.5 -37.5t-23.5 -91.5v-50q0 -60 26 -93t70 -33q22 0 40 9.5t31.5 25.5t21 37t7.5 45v67z" />
    <glyph glyph-name="Emacron" unicode="&#x112;" horiz-adv-x="511" 
d="M73 0v667h389v-108l-257 -1v-159h235v-107h-235v-183l257 -1v-108h-389zM84 742v107h357v-107h-357z" />
    <glyph glyph-name="emacron" unicode="&#x113;" horiz-adv-x="509" 
d="M473 262q0 -7 -0.5 -15.5t-1 -16.5t-0.5 -14h-305v-11q0 -22 6 -42.5t20.5 -37t37.5 -26.5t57 -10q43 0 82 10t72 26l6 -101q-29 -17 -73.5 -27.5t-100.5 -10.5q-70 0 -115.5 18.5t-72 52.5t-37 82.5t-10.5 108.5q0 59 12.5 108t40 84t72 54.5t108.5 19.5
q104 0 153 -58.5t49 -181.5v-12zM352 302q0 22 -3 44t-12 39.5t-26 28.5t-45 11q-27 0 -46.5 -10.5t-31.5 -28t-18 -39.5t-6 -45h188zM78 601v107h357v-107h-357z" />
    <glyph glyph-name="Ebreve" unicode="&#x114;" horiz-adv-x="511" 
d="M73 0v667h389v-108l-257 -1v-159h235v-107h-235v-183l257 -1v-108h-389zM428 876q0 -72 -43.5 -114t-118.5 -42t-119 42t-44 114h102q0 -27 16 -46t45 -19t44.5 19t15.5 47z" />
    <glyph glyph-name="ebreve" unicode="&#x115;" horiz-adv-x="509" 
d="M473 262q0 -7 -0.5 -15.5t-1 -16.5t-0.5 -14h-305v-11q0 -22 6 -42.5t20.5 -37t37.5 -26.5t57 -10q43 0 82 10t72 26l6 -101q-29 -17 -73.5 -27.5t-100.5 -10.5q-70 0 -115.5 18.5t-72 52.5t-37 82.5t-10.5 108.5q0 59 12.5 108t40 84t72 54.5t108.5 19.5
q104 0 153 -58.5t49 -181.5v-12zM352 302q0 22 -3 44t-12 39.5t-26 28.5t-45 11q-27 0 -46.5 -10.5t-31.5 -28t-18 -39.5t-6 -45h188zM424 726q0 -72 -43.5 -114t-118.5 -42t-119 42t-44 114h102q0 -27 16 -46t45 -19t44.5 19t15.5 47z" />
    <glyph glyph-name="Edotaccent" unicode="&#x116;" horiz-adv-x="511" 
d="M73 0v667h389v-108l-257 -1v-159h235v-107h-235v-183l257 -1v-108h-389zM343 795q0 -33 -23.5 -56t-55.5 -23q-33 0 -56 23t-23 56q0 32 23 55.5t56 23.5q32 0 55.5 -23.5t23.5 -55.5z" />
    <glyph glyph-name="edotaccent" unicode="&#x117;" horiz-adv-x="509" 
d="M473 262q0 -7 -0.5 -15.5t-1 -16.5t-0.5 -14h-305v-11q0 -22 6 -42.5t20.5 -37t37.5 -26.5t57 -10q43 0 82 10t72 26l6 -101q-29 -17 -73.5 -27.5t-100.5 -10.5q-70 0 -115.5 18.5t-72 52.5t-37 82.5t-10.5 108.5q0 59 12.5 108t40 84t72 54.5t108.5 19.5
q104 0 153 -58.5t49 -181.5v-12zM352 302q0 22 -3 44t-12 39.5t-26 28.5t-45 11q-27 0 -46.5 -10.5t-31.5 -28t-18 -39.5t-6 -45h188zM336 648q0 -33 -23.5 -56t-55.5 -23q-33 0 -56 23t-23 56q0 32 23 55.5t56 23.5q32 0 55.5 -23.5t23.5 -55.5z" />
    <glyph glyph-name="Eogonek" unicode="&#x118;" horiz-adv-x="511" 
d="M470 -235q-17 -3 -32.5 -4t-29.5 -1q-42 0 -70 9.5t-44.5 26t-23.5 38.5t-7 46q0 22 9.5 41.5t22.5 35t26.5 26.5t22.5 17h-271v667h389v-108l-257 -1v-159h235v-107h-235v-183l257 -1v-108h-9q-8 0 -21.5 -7.5t-27 -19.5t-23.5 -28t-10 -34q0 -35 16.5 -52t54.5 -17
q15 0 25 2z" />
    <glyph glyph-name="eogonek" unicode="&#x119;" horiz-adv-x="509" 
d="M473 262q0 -7 -0.5 -15.5t-1 -16.5t-0.5 -14h-305v-11q0 -22 6 -42.5t20.5 -37t37.5 -26.5t57 -10q43 0 82 10t72 26l6 -99q-21 -10 -41.5 -23t-36.5 -27.5t-26 -31t-10 -33.5q0 -35 16.5 -52t54.5 -17q15 0 25 2l3 -79q-17 -3 -32.5 -4t-29.5 -1q-42 0 -70 9.5t-44.5 26
t-23.5 38.5t-7 46q0 35 23 63.5t50 47.5q-5 -2 -11.5 -3.5t-13.5 -1.5q-70 0 -115.5 18.5t-72 52.5t-37 82.5t-10.5 108.5q0 59 12.5 108t40 84t72 54.5t108.5 19.5q104 0 153 -58.5t49 -181.5v-12zM352 302q0 22 -3 44t-12 39.5t-26 28.5t-45 11q-27 0 -46.5 -10.5
t-31.5 -28t-18 -39.5t-6 -45h188z" />
    <glyph glyph-name="Ecaron" unicode="&#x11a;" horiz-adv-x="511" 
d="M73 0v667h389v-108l-257 -1v-159h235v-107h-235v-183l257 -1v-108h-389zM328 720h-133l-108 151h119l56 -72l56 72h118z" />
    <glyph glyph-name="ecaron" unicode="&#x11b;" horiz-adv-x="509" 
d="M473 262q0 -7 -0.5 -15.5t-1 -16.5t-0.5 -14h-305v-11q0 -22 6 -42.5t20.5 -37t37.5 -26.5t57 -10q43 0 82 10t72 26l6 -101q-29 -17 -73.5 -27.5t-100.5 -10.5q-70 0 -115.5 18.5t-72 52.5t-37 82.5t-10.5 108.5q0 59 12.5 108t40 84t72 54.5t108.5 19.5
q104 0 153 -58.5t49 -181.5v-12zM352 302q0 22 -3 44t-12 39.5t-26 28.5t-45 11q-27 0 -46.5 -10.5t-31.5 -28t-18 -39.5t-6 -45h188zM321 570h-133l-108 151h119l56 -72l56 72h118z" />
    <glyph glyph-name="Gcircumflex" unicode="&#x11c;" horiz-adv-x="607" 
d="M543 43q-11 -7 -32.5 -17t-51.5 -19t-67.5 -15.5t-81.5 -6.5q-83 0 -134.5 26t-80 72t-38.5 109.5t-10 139.5t13 140t46.5 110.5t90.5 73t146 26.5q33 0 59 -3t47 -8.5t40 -12.5t39 -15l-6 -111q-33 14 -74 27.5t-97 13.5q-87 0 -128 -50.5t-41 -145.5v-90
q0 -54 10 -90.5t28.5 -59.5t43.5 -33t55 -10q38 0 64 8.5t35 13.5v149h-98v104h223v-326zM384 720l-56 73l-56 -73h-118l108 151h133l108 -151h-119z" />
    <glyph glyph-name="gcircumflex" unicode="&#x11d;" horiz-adv-x="561" 
d="M543 405l-84 8q6 -6 16 -24.5t10 -45.5q0 -37 -16 -67.5t-45.5 -52t-71 -33.5t-91.5 -12q-21 0 -41 1.5t-28 3.5q-4 -5 -9 -14t-5 -17q0 -14 12 -25t47 -12l81 -1q37 -1 71 -9t59.5 -25.5t40.5 -45t15 -67.5q0 -43 -21.5 -77.5t-57.5 -58.5t-84.5 -37t-102.5 -13
q-106 0 -156.5 39t-50.5 105q0 37 26 69.5t67 49.5v1q-8 1 -19 6t-20.5 14t-16.5 22.5t-7 33.5q0 16 6.5 30.5t16 26t19.5 20t17 13.5q-9 5 -22 15.5t-25 27t-20.5 39t-8.5 51.5q0 77 59 123.5t167 46.5q34 0 61 -5t38 -9l180 3zM382 -44q0 29 -26.5 44.5t-68.5 15.5h-75
q-7 -3 -17 -8.5t-19 -15t-15 -22.5t-6 -29q0 -34 27.5 -54.5t72.5 -20.5q29 0 52.5 7t40 18.5t25.5 26t9 29.5v9zM363 352q0 33 -23.5 54.5t-68.5 21.5t-69.5 -22.5t-24.5 -53.5v-18q0 -35 23 -55t69 -20q45 0 69.5 22t24.5 53v18zM324 570l-56 73l-56 -73h-118l108 151h132
l109 -151h-119z" />
    <glyph glyph-name="Gbreve" unicode="&#x11e;" horiz-adv-x="607" 
d="M543 43q-11 -7 -32.5 -17t-51.5 -19t-67.5 -15.5t-81.5 -6.5q-83 0 -134.5 26t-80 72t-38.5 109.5t-10 139.5t13 140t46.5 110.5t90.5 73t146 26.5q33 0 59 -3t47 -8.5t40 -12.5t39 -15l-6 -111q-33 14 -74 27.5t-97 13.5q-87 0 -128 -50.5t-41 -145.5v-90
q0 -54 10 -90.5t28.5 -59.5t43.5 -33t55 -10q38 0 64 8.5t35 13.5v149h-98v104h223v-326zM465 871q0 -72 -43.5 -114t-118.5 -42t-119 42t-44 114h102q0 -27 16 -46t45 -19t44.5 19t15.5 47z" />
    <glyph glyph-name="gbreve" unicode="&#x11f;" horiz-adv-x="561" 
d="M543 405l-84 8q6 -6 16 -24.5t10 -45.5q0 -37 -16 -67.5t-45.5 -52t-71 -33.5t-91.5 -12q-21 0 -41 1.5t-28 3.5q-4 -5 -9 -14t-5 -17q0 -14 12 -25t47 -12l81 -1q37 -1 71 -9t59.5 -25.5t40.5 -45t15 -67.5q0 -43 -21.5 -77.5t-57.5 -58.5t-84.5 -37t-102.5 -13
q-106 0 -156.5 39t-50.5 105q0 37 26 69.5t67 49.5v1q-8 1 -19 6t-20.5 14t-16.5 22.5t-7 33.5q0 16 6.5 30.5t16 26t19.5 20t17 13.5q-9 5 -22 15.5t-25 27t-20.5 39t-8.5 51.5q0 77 59 123.5t167 46.5q34 0 61 -5t38 -9l180 3zM382 -44q0 29 -26.5 44.5t-68.5 15.5h-75
q-7 -3 -17 -8.5t-19 -15t-15 -22.5t-6 -29q0 -34 27.5 -54.5t72.5 -20.5q29 0 52.5 7t40 18.5t25.5 26t9 29.5v9zM363 352q0 33 -23.5 54.5t-68.5 21.5t-69.5 -22.5t-24.5 -53.5v-18q0 -35 23 -55t69 -20q45 0 69.5 22t24.5 53v18zM436 721q0 -72 -43.5 -114t-118.5 -42
t-119 42t-44 114h102q0 -27 16 -46t45 -19t44.5 19t15.5 47z" />
    <glyph glyph-name="Gdotaccent" unicode="&#x120;" horiz-adv-x="607" 
d="M543 43q-11 -7 -32.5 -17t-51.5 -19t-67.5 -15.5t-81.5 -6.5q-83 0 -134.5 26t-80 72t-38.5 109.5t-10 139.5t13 140t46.5 110.5t90.5 73t146 26.5q33 0 59 -3t47 -8.5t40 -12.5t39 -15l-6 -111q-33 14 -74 27.5t-97 13.5q-87 0 -128 -50.5t-41 -145.5v-90
q0 -54 10 -90.5t28.5 -59.5t43.5 -33t55 -10q38 0 64 8.5t35 13.5v149h-98v104h223v-326zM408 795q0 -33 -23.5 -56t-55.5 -23q-33 0 -56 23t-23 56q0 32 23 55.5t56 23.5q32 0 55.5 -23.5t23.5 -55.5z" />
    <glyph glyph-name="gdotaccent" unicode="&#x121;" horiz-adv-x="561" 
d="M543 405l-84 8q6 -6 16 -24.5t10 -45.5q0 -37 -16 -67.5t-45.5 -52t-71 -33.5t-91.5 -12q-21 0 -41 1.5t-28 3.5q-4 -5 -9 -14t-5 -17q0 -14 12 -25t47 -12l81 -1q37 -1 71 -9t59.5 -25.5t40.5 -45t15 -67.5q0 -43 -21.5 -77.5t-57.5 -58.5t-84.5 -37t-102.5 -13
q-106 0 -156.5 39t-50.5 105q0 37 26 69.5t67 49.5v1q-8 1 -19 6t-20.5 14t-16.5 22.5t-7 33.5q0 16 6.5 30.5t16 26t19.5 20t17 13.5q-9 5 -22 15.5t-25 27t-20.5 39t-8.5 51.5q0 77 59 123.5t167 46.5q34 0 61 -5t38 -9l180 3zM382 -44q0 29 -26.5 44.5t-68.5 15.5h-75
q-7 -3 -17 -8.5t-19 -15t-15 -22.5t-6 -29q0 -34 27.5 -54.5t72.5 -20.5q29 0 52.5 7t40 18.5t25.5 26t9 29.5v9zM363 352q0 33 -23.5 54.5t-68.5 21.5t-69.5 -22.5t-24.5 -53.5v-18q0 -35 23 -55t69 -20q45 0 69.5 22t24.5 53v18zM349 648q0 -33 -23.5 -56t-55.5 -23
q-33 0 -56 23t-23 56q0 32 23 55.5t56 23.5q32 0 55.5 -23.5t23.5 -55.5z" />
    <glyph glyph-name="Gcommaaccent" unicode="&#x122;" horiz-adv-x="607" 
d="M543 43q-11 -7 -32.5 -17t-51.5 -19t-67.5 -15.5t-81.5 -6.5q-83 0 -134.5 26t-80 72t-38.5 109.5t-10 139.5t13 140t46.5 110.5t90.5 73t146 26.5q33 0 59 -3t47 -8.5t40 -12.5t39 -15l-6 -111q-33 14 -74 27.5t-97 13.5q-87 0 -128 -50.5t-41 -145.5v-90
q0 -54 10 -90.5t28.5 -59.5t43.5 -33t55 -10q38 0 64 8.5t35 13.5v149h-98v104h223v-326zM311 -247h-99l50 195h126z" />
    <glyph glyph-name="gcommaaccent" unicode="&#x123;" horiz-adv-x="561" 
d="M543 405l-84 8q6 -6 16 -24.5t10 -45.5q0 -37 -16 -67.5t-45.5 -52t-71 -33.5t-91.5 -12q-21 0 -41 1.5t-28 3.5q-4 -5 -9 -14t-5 -17q0 -14 12 -25t47 -12l81 -1q37 -1 71 -9t59.5 -25.5t40.5 -45t15 -67.5q0 -43 -21.5 -77.5t-57.5 -58.5t-84.5 -37t-102.5 -13
q-106 0 -156.5 39t-50.5 105q0 37 26 69.5t67 49.5v1q-8 1 -19 6t-20.5 14t-16.5 22.5t-7 33.5q0 16 6.5 30.5t16 26t19.5 20t17 13.5q-9 5 -22 15.5t-25 27t-20.5 39t-8.5 51.5q0 77 59 123.5t167 46.5q34 0 61 -5t38 -9l180 3zM382 -44q0 29 -26.5 44.5t-68.5 15.5h-75
q-7 -3 -17 -8.5t-19 -15t-15 -22.5t-6 -29q0 -34 27.5 -54.5t72.5 -20.5q29 0 52.5 7t40 18.5t25.5 26t9 29.5v9zM363 352q0 33 -23.5 54.5t-68.5 21.5t-69.5 -22.5t-24.5 -53.5v-18q0 -35 23 -55t69 -20q45 0 69.5 22t24.5 53v18zM288 807h95l-62 -237h-126z" />
    <glyph glyph-name="Hcircumflex" unicode="&#x124;" horiz-adv-x="658" 
d="M452 0v288h-247v-288h-132v667h132v-264h247v264h132v-667h-132zM390 720l-56 73l-56 -73h-118l108 151h133l108 -151h-119z" />
    <glyph glyph-name="hcircumflex" unicode="&#x125;" horiz-adv-x="579" 
d="M384 0v306q0 18 -3.5 35t-12.5 30t-25.5 21t-42.5 8q-21 0 -39.5 -7.5t-32.5 -20.5t-22.5 -30t-8.5 -35v-307h-130v705h130v-260h1q7 8 20.5 20t33 23t45 18.5t55.5 7.5q75 0 118.5 -40t43.5 -128v-346h-130zM186 737l-56 73l-56 -73h-118l108 151h132l109 -151h-119z
" />
    <glyph glyph-name="Hbar" unicode="&#x126;" horiz-adv-x="658" 
d="M452 0v288h-247v-288h-132v491h-72v102h72v74h132v-74h247v74h132v-74h73v-102h-73v-491h-132zM452 403v88h-247v-88h247z" />
    <glyph glyph-name="hbar" unicode="&#x127;" horiz-adv-x="579" 
d="M384 0v306q0 18 -3.5 35t-12.5 30t-25.5 21t-42.5 8q-21 0 -39.5 -7.5t-32.5 -20.5t-22.5 -30t-8.5 -35v-307h-130v553h-58v84h58v68h130v-68h149v-84h-149v-108h1q7 8 20.5 20t33 23t45 18.5t55.5 7.5q75 0 118.5 -40t43.5 -128v-346h-130z" />
    <glyph glyph-name="Itilde" unicode="&#x128;" horiz-adv-x="280" 
d="M73 0v667h133v-667h-133zM314 873q0 -39 -7.5 -64.5t-21 -40.5t-32.5 -21t-41 -6q-15 0 -32 5t-33.5 11.5t-31 11.5t-24.5 5q-16 0 -22 -9.5t-6 -23.5h-94q0 39 7.5 64.5t21 40.5t32 21t40.5 6q15 0 32 -5.5t33.5 -11.5t31.5 -11.5t24 -5.5q16 0 22 10t6 24h95z" />
    <glyph glyph-name="itilde" unicode="&#x129;" horiz-adv-x="269" 
d="M71 0v500h130v-500h-130zM308 723q0 -39 -7.5 -64.5t-21 -40.5t-32.5 -21t-41 -6q-15 0 -32 5t-33.5 11.5t-31 11.5t-24.5 5q-16 0 -22 -9.5t-6 -23.5h-94q0 39 7.5 64.5t21 40.5t32 21t40.5 6q15 0 32.5 -5.5t34 -11.5t31 -11.5t24.5 -5.5q16 0 21.5 10t5.5 24h95z" />
    <glyph glyph-name="Imacron" unicode="&#x12a;" horiz-adv-x="280" 
d="M73 0v667h133v-667h-133zM-37 742v107h357v-107h-357z" />
    <glyph glyph-name="imacron" unicode="&#x12b;" horiz-adv-x="269" 
d="M71 0v500h130v-500h-130zM-43 601v107h357v-107h-357z" />
    <glyph glyph-name="Ibreve" unicode="&#x12c;" horiz-adv-x="280" 
d="M73 0v667h133v-667h-133zM303 876q0 -72 -43.5 -114t-118.5 -42t-119 42t-44 114h102q0 -27 16 -46t45 -19t44.5 19t15.5 47z" />
    <glyph glyph-name="ibreve" unicode="&#x12d;" horiz-adv-x="269" 
d="M71 0v500h130v-500h-130zM298 726q0 -72 -43.5 -114t-118.5 -42t-119 42t-44 114h102q0 -27 16 -46t45 -19t44.5 19t15.5 47z" />
    <glyph glyph-name="Iogonek" unicode="&#x12e;" horiz-adv-x="280" 
d="M232 -235q-17 -3 -32.5 -4t-29.5 -1q-42 0 -70 9.5t-44.5 26t-23.5 38.5t-7 46q0 22 9.5 42t22.5 35.5t26.5 26.5t21.5 16h-32v667h133v-667q-4 0 -16 -7.5t-24.5 -20t-22.5 -28.5t-10 -33q0 -35 16.5 -52t54.5 -17q15 0 25 2z" />
    <glyph glyph-name="iogonek" unicode="&#x12f;" horiz-adv-x="269" 
d="M216 637q0 -34 -23.5 -57.5t-56.5 -23.5q-34 0 -57.5 23.5t-23.5 57.5q0 33 23.5 56.5t57.5 23.5q33 0 56.5 -23.5t23.5 -56.5zM227 -235q-17 -3 -32.5 -4t-29.5 -1q-42 0 -70 9.5t-44.5 26t-23.5 38.5t-7 46q0 22 9.5 42t22.5 35.5t26.5 26.5t21.5 16h-29v500h130v-500
q-4 0 -16 -7.5t-24.5 -20t-22.5 -28.5t-10 -33q0 -35 16.5 -52t54.5 -17q15 0 25 2z" />
    <glyph glyph-name="Idotaccent" unicode="&#x130;" horiz-adv-x="280" 
d="M73 0v667h133v-667h-133zM220 795q0 -33 -23.5 -56t-55.5 -23q-33 0 -56 23t-23 56q0 32 23 55.5t56 23.5q32 0 55.5 -23.5t23.5 -55.5z" />
    <glyph glyph-name="dotlessi" unicode="&#x131;" horiz-adv-x="269" 
d="M71 0v500h130v-500h-130z" />
    <glyph glyph-name="IJ" unicode="&#x132;" horiz-adv-x="635" 
d="M73 0v667h133v-667h-133zM566 183q0 -101 -44.5 -149.5t-144.5 -48.5q-30 0 -54.5 5t-33.5 8l6 104q7 -2 24 -5.5t37 -3.5q43 0 60.5 27t17.5 81v466h132v-484z" />
    <glyph glyph-name="ij" unicode="&#x133;" horiz-adv-x="548" 
d="M71 0v500h130v-500h-130zM216 637q0 -34 -23.5 -57.5t-56.5 -23.5q-34 0 -57.5 23.5t-23.5 57.5q0 33 23.5 56.5t57.5 23.5q33 0 56.5 -23.5t23.5 -56.5zM480 -59q0 -83 -43.5 -121.5t-118.5 -38.5q-27 0 -46.5 4t-26.5 6l6 100q5 -2 16 -3.5t24 -1.5q59 0 59 69v545h130
v-559zM495 637q0 -34 -23.5 -57.5t-56.5 -23.5q-34 0 -57.5 23.5t-23.5 57.5q0 33 23.5 56.5t57.5 23.5q33 0 56.5 -23.5t23.5 -56.5z" />
    <glyph glyph-name="Jcircumflex" unicode="&#x134;" horiz-adv-x="355" 
d="M286 183q0 -101 -44.5 -149.5t-144.5 -48.5q-30 0 -54.5 5t-33.5 8l6 104q7 -2 24 -5.5t37 -3.5q43 0 60.5 27t17.5 81v466h132v-484zM283 720l-56 73l-56 -73h-118l108 151h133l108 -151h-119z" />
    <glyph glyph-name="jcircumflex" unicode="&#x135;" horiz-adv-x="279" 
d="M211 -59q0 -83 -43.5 -121.5t-118.5 -38.5q-27 0 -46.5 4t-26.5 6l6 100q5 -2 16 -3.5t24 -1.5q59 0 59 69v545h130v-559zM200 570l-56 73l-56 -73h-118l108 151h132l109 -151h-119z" />
    <glyph glyph-name="Kcommaaccent" unicode="&#x136;" horiz-adv-x="595" 
d="M425 0q-29 36 -61 77.5t-62 82t-55.5 75.5t-40.5 56h-1v-291h-132v667h132v-284h1l205 284h156l-243 -321q13 -19 39 -53t61 -79.5t78.5 -100t91.5 -113.5h-169zM300 -247h-99l50 195h126z" />
    <glyph glyph-name="kcommaaccent" unicode="&#x137;" horiz-adv-x="532" 
d="M375 0q-28 33 -55.5 68.5t-51 68t-42.5 59t-29 42.5h-1v-238h-129v705h129v-409h1l151 204h153l-178 -224q10 -15 30 -42t48 -63.5t62 -80t73 -90.5h-161zM269 -247h-99l50 195h126z" />
    <glyph glyph-name="kgreenlandic" unicode="&#x138;" horiz-adv-x="532" 
d="M375 0q-28 33 -55.5 68.5t-51 68t-42.5 59t-29 42.5h-1v-238h-129v500h129v-204h1l151 204h153l-178 -224q10 -15 30 -42t48 -63.5t62 -80t73 -90.5h-161z" />
    <glyph glyph-name="Lacute" unicode="&#x139;" horiz-adv-x="481" 
d="M73 0v667h132v-559l249 -1v-107h-381zM271 720h-114l68 151h131z" />
    <glyph glyph-name="lacute" unicode="&#x13a;" horiz-adv-x="269" 
d="M71 0v705h130v-705h-130zM161 751h-114l68 151h131z" />
    <glyph glyph-name="Lcommaaccent" unicode="&#x13b;" horiz-adv-x="481" 
d="M73 0v667h132v-559l249 -1v-107h-381zM243 -247h-99l50 195h126z" />
    <glyph glyph-name="lcommaaccent" unicode="&#x13c;" horiz-adv-x="269" 
d="M71 0v705h130v-705h-130zM136 -247h-99l50 195h126z" />
    <glyph glyph-name="Lcaron" unicode="&#x13d;" horiz-adv-x="481" 
d="M73 0v667h132v-559l249 -1v-107h-381zM371 472h-99l50 195h126z" />
    <glyph glyph-name="lcaron" unicode="&#x13e;" horiz-adv-x="269" 
d="M71 0v705h130v-705h-130zM357 591h-99l50 195h126z" />
    <glyph glyph-name="Ldot" unicode="&#x13f;" horiz-adv-x="598" 
d="M73 0v667h132v-559l249 -1v-107h-381zM528 345q0 -36 -25.5 -61.5t-61.5 -25.5q-18 0 -33.5 7t-27 18.5t-18.5 27.5t-7 34t7 33.5t18.5 27.5t27 18.5t33.5 6.5q36 0 61.5 -25t25.5 -61z" />
    <glyph glyph-name="ldot" unicode="&#x140;" horiz-adv-x="466" 
d="M71 0v705h130v-705h-130zM454 346q0 -36 -25.5 -61.5t-61.5 -25.5q-18 0 -33.5 7t-27 18.5t-18.5 27.5t-7 34t7 33.5t18.5 27.5t27 18.5t33.5 6.5q36 0 61.5 -25t25.5 -61z" />
    <glyph glyph-name="Lslash" unicode="&#x141;" horiz-adv-x="481" 
d="M73 0v298l-72 -36v111l72 36v258h132v-193l100 49v-111l-100 -50v-254l249 -1v-107h-381z" />
    <glyph glyph-name="lslash" unicode="&#x142;" horiz-adv-x="269" 
d="M201 365v-365h-130v301l-78 -39v111l78 40v292h130v-229l75 38v-111z" />
    <glyph glyph-name="Nacute" unicode="&#x143;" horiz-adv-x="661" 
d="M448 0l-254 464h-1l2 -464h-122v667h141l254 -464h1l-3 464h122v-667h-140zM367 720h-114l68 151h131z" />
    <glyph glyph-name="nacute" unicode="&#x144;" horiz-adv-x="581" 
d="M386 0v306q0 18 -3.5 35t-12.5 30t-25.5 21t-42.5 8q-21 0 -39.5 -7.5t-32.5 -20.5t-22.5 -29.5t-8.5 -34.5v-308h-130v500h124v-61h2q7 9 20.5 22t34 24.5t46.5 20t58 8.5q37 0 67 -9.5t51 -30t32.5 -52.5t11.5 -76v-346h-130zM322 570h-114l68 151h131z" />
    <glyph glyph-name="Ncommaaccent" unicode="&#x145;" horiz-adv-x="661" 
d="M448 0l-254 464h-1l2 -464h-122v667h141l254 -464h1l-3 464h122v-667h-140zM331 -247h-99l50 195h126z" />
    <glyph glyph-name="ncommaaccent" unicode="&#x146;" horiz-adv-x="581" 
d="M386 0v306q0 18 -3.5 35t-12.5 30t-25.5 21t-42.5 8q-21 0 -39.5 -7.5t-32.5 -20.5t-22.5 -29.5t-8.5 -34.5v-308h-130v500h124v-61h2q7 9 20.5 22t34 24.5t46.5 20t58 8.5q37 0 67 -9.5t51 -30t32.5 -52.5t11.5 -76v-346h-130zM293 -247h-99l50 195h126z" />
    <glyph glyph-name="Ncaron" unicode="&#x147;" horiz-adv-x="661" 
d="M448 0l-254 464h-1l2 -464h-122v667h141l254 -464h1l-3 464h122v-667h-140zM397 720h-133l-108 151h119l56 -72l56 72h118z" />
    <glyph glyph-name="ncaron" unicode="&#x148;" horiz-adv-x="581" 
d="M386 0v306q0 18 -3.5 35t-12.5 30t-25.5 21t-42.5 8q-21 0 -39.5 -7.5t-32.5 -20.5t-22.5 -29.5t-8.5 -34.5v-308h-130v500h124v-61h2q7 9 20.5 22t34 24.5t46.5 20t58 8.5q37 0 67 -9.5t51 -30t32.5 -52.5t11.5 -76v-346h-130zM357 570h-133l-108 151h119l56 -72l56 72
h118z" />
    <glyph glyph-name="napostrophe" unicode="&#x149;" horiz-adv-x="713" 
d="M518 0v306q0 18 -3.5 35t-12.5 30t-25.5 21t-42.5 8q-21 0 -39.5 -7.5t-32.5 -20.5t-22.5 -29.5t-8.5 -34.5v-308h-130v500h124v-61h2q7 9 20.5 22t34 24.5t46.5 20t58 8.5q37 0 67 -9.5t51 -30t32.5 -52.5t11.5 -76v-346h-130zM105 500h-105l69 263h133z" />
    <glyph glyph-name="Eng" unicode="&#x14a;" horiz-adv-x="661" 
d="M588 -59q0 -83 -43.5 -121.5t-118.5 -38.5q-27 0 -46.5 4t-26.5 6l6 100q5 -2 18.5 -3.5t28.5 -1.5q59 0 59 69v45l-271 464h-1l2 -464h-122v667h141l254 -454h1l-3 454h122v-726z" />
    <glyph glyph-name="eng" unicode="&#x14b;" horiz-adv-x="581" 
d="M516 -59q0 -83 -43.5 -121.5t-118.5 -38.5q-27 0 -46.5 4t-26.5 6l6 100q5 -2 16 -3.5t24 -1.5q59 0 59 69v351q0 18 -3.5 35t-12.5 30t-25.5 21t-42.5 8q-21 0 -39.5 -7.5t-32.5 -20.5t-22.5 -29.5t-8.5 -34.5v-308h-130v500h124v-61h2q7 9 20.5 22t34 24.5t46.5 20
t58 8.5q37 0 67 -9.5t51 -30t32.5 -52.5t11.5 -76v-405z" />
    <glyph glyph-name="Omacron" unicode="&#x14c;" horiz-adv-x="621" 
d="M584 334q0 -79 -11 -143.5t-42 -110t-85 -70.5t-140 -25t-138.5 25t-81.5 70.5t-39 110t-10 143.5q0 78 11.5 142.5t42 110t84.5 70.5t140 25t138.5 -25t81.5 -70.5t39 -110t10 -142.5zM449 377q0 196 -137 196q-140 0 -140 -196v-87q0 -196 137 -196q140 0 140 196v87z
M131 742v107h357v-107h-357z" />
    <glyph glyph-name="omacron" unicode="&#x14d;" horiz-adv-x="537" 
d="M496 252q0 -61 -12.5 -110t-39.5 -83.5t-70.5 -53.5t-106.5 -19t-106 18t-70 52t-38.5 82.5t-11.5 109.5t12.5 110t39.5 83.5t71 53.5t107 19t106 -18t69.5 -51.5t38 -82.5t11.5 -110zM364 290q0 57 -23 90.5t-71 33.5t-72.5 -34.5t-24.5 -91.5v-78q0 -57 23 -90.5
t71 -33.5t72.5 34.5t24.5 91.5v78zM90 601v107h357v-107h-357z" />
    <glyph glyph-name="Obreve" unicode="&#x14e;" horiz-adv-x="621" 
d="M584 334q0 -79 -11 -143.5t-42 -110t-85 -70.5t-140 -25t-138.5 25t-81.5 70.5t-39 110t-10 143.5q0 78 11.5 142.5t42 110t84.5 70.5t140 25t138.5 -25t81.5 -70.5t39 -110t10 -142.5zM449 377q0 196 -137 196q-140 0 -140 -196v-87q0 -196 137 -196q140 0 140 196v87z
M471 876q0 -72 -43.5 -114t-118.5 -42t-119 42t-44 114h102q0 -27 16 -46t45 -19t44.5 19t15.5 47z" />
    <glyph glyph-name="obreve" unicode="&#x14f;" horiz-adv-x="537" 
d="M496 252q0 -61 -12.5 -110t-39.5 -83.5t-70.5 -53.5t-106.5 -19t-106 18t-70 52t-38.5 82.5t-11.5 109.5t12.5 110t39.5 83.5t71 53.5t107 19t106 -18t69.5 -51.5t38 -82.5t11.5 -110zM364 290q0 57 -23 90.5t-71 33.5t-72.5 -34.5t-24.5 -91.5v-78q0 -57 23 -90.5
t71 -33.5t72.5 34.5t24.5 91.5v78zM430 726q0 -72 -43.5 -114t-118.5 -42t-119 42t-44 114h102q0 -27 16 -46t45 -19t44.5 19t15.5 47z" />
    <glyph glyph-name="Ohungarumlaut" unicode="&#x150;" horiz-adv-x="621" 
d="M584 334q0 -79 -11 -143.5t-42 -110t-85 -70.5t-140 -25t-138.5 25t-81.5 70.5t-39 110t-10 143.5q0 78 11.5 142.5t42 110t84.5 70.5t140 25t138.5 -25t81.5 -70.5t39 -110t10 -142.5zM449 377q0 196 -137 196q-140 0 -140 -196v-87q0 -196 137 -196q140 0 140 196v87z
M461 720h-115l68 151h131zM241 720h-115l68 151h131z" />
    <glyph glyph-name="ohungarumlaut" unicode="&#x151;" horiz-adv-x="537" 
d="M496 252q0 -61 -12.5 -110t-39.5 -83.5t-70.5 -53.5t-106.5 -19t-106 18t-70 52t-38.5 82.5t-11.5 109.5t12.5 110t39.5 83.5t71 53.5t107 19t106 -18t69.5 -51.5t38 -82.5t11.5 -110zM364 290q0 57 -23 90.5t-71 33.5t-72.5 -34.5t-24.5 -91.5v-78q0 -57 23 -90.5
t71 -33.5t72.5 34.5t24.5 91.5v78zM419 570h-115l68 151h131zM199 570h-115l68 151h131z" />
    <glyph glyph-name="OE" unicode="&#x152;" horiz-adv-x="877" 
d="M445 0v59h-1q-5 -9 -17 -21.5t-32 -24.5t-48.5 -20t-66.5 -8q-73 0 -120 25t-74.5 70.5t-38 110t-10.5 143.5q0 78 11.5 142.5t40.5 110t78.5 70.5t126.5 25q34 0 59.5 -8t44 -20t30 -24.5t16.5 -21.5h1v59h383v-107l-256 -2v-159h233v-107h-233v-183l256 -2v-107h-383z
M439 436q0 25 -8 49.5t-24.5 44t-41 31.5t-58.5 12q-135 0 -135 -196v-87q0 -196 132 -196q34 0 59.5 11.5t42 30t25 43.5t8.5 52v205z" />
    <glyph glyph-name="oe" unicode="&#x153;" horiz-adv-x="833" 
d="M798 262q0 -7 -0.5 -15.5t-1 -16.5t-0.5 -14h-306v-11q0 -22 6.5 -42.5t20.5 -37t37.5 -26.5t57.5 -10q43 0 81.5 10t72.5 26l6 -101q-29 -17 -75 -27.5t-103 -10.5q-44 0 -74.5 9.5t-50 23t-30 29t-14.5 26.5h-1q-5 -12 -15.5 -27t-30 -28.5t-47.5 -23t-67 -9.5
q-62 0 -104.5 18t-69 52t-38 82.5t-11.5 109.5t12.5 110t39.5 83.5t70 53.5t105 19q39 0 67 -9.5t47.5 -23t30 -28.5t15.5 -27h1q5 12 18 27t33.5 28.5t49 23t66.5 9.5q104 0 153 -58.5t49 -181.5v-12zM359 290q0 57 -22 90.5t-69 33.5q-48 0 -71.5 -34.5t-23.5 -91.5v-78
q0 -57 22 -90.5t70 -33.5q47 0 70.5 34.5t23.5 91.5v78zM677 302q0 22 -3 44t-12 39.5t-26 28.5t-45 11q-27 0 -46.5 -10.5t-31.5 -28t-18 -39.5t-6 -45h188z" />
    <glyph glyph-name="Racute" unicode="&#x154;" horiz-adv-x="596" 
d="M418 0l-78 198q-24 59 -68 59h-67v-257h-132v667h229q53 0 97 -10.5t75 -33.5t48 -59.5t17 -89.5q0 -35 -10.5 -63t-28.5 -49.5t-42 -36.5t-51 -23v-1q8 -2 26 -15.5t33 -48.5l104 -237h-152zM405 463q0 48 -25.5 73t-86.5 25h-88v-199h80q62 0 91 27.5t29 73.5zM336 720
h-114l68 151h131z" />
    <glyph glyph-name="racute" unicode="&#x155;" horiz-adv-x="378" 
d="M354 390q-3 1 -13 2t-24 1q-27 0 -49.5 -9.5t-38.5 -25.5t-24.5 -36.5t-8.5 -42.5v-279h-129v500h123v-74h1q4 8 14.5 23t27.5 29.5t42.5 25t59.5 10.5q19 0 25 -2zM242 570h-114l68 151h131z" />
    <glyph glyph-name="Rcommaaccent" unicode="&#x156;" horiz-adv-x="596" 
d="M418 0l-78 198q-24 59 -68 59h-67v-257h-132v667h229q53 0 97 -10.5t75 -33.5t48 -59.5t17 -89.5q0 -35 -10.5 -63t-28.5 -49.5t-42 -36.5t-51 -23v-1q8 -2 26 -15.5t33 -48.5l104 -237h-152zM405 463q0 48 -25.5 73t-86.5 25h-88v-199h80q62 0 91 27.5t29 73.5z
M299 -247h-99l50 195h126z" />
    <glyph glyph-name="rcommaaccent" unicode="&#x157;" horiz-adv-x="378" 
d="M354 390q-3 1 -13 2t-24 1q-27 0 -49.5 -9.5t-38.5 -25.5t-24.5 -36.5t-8.5 -42.5v-279h-129v500h123v-74h1q4 8 14.5 23t27.5 29.5t42.5 25t59.5 10.5q19 0 25 -2zM150 -247h-99l50 195h126z" />
    <glyph glyph-name="Rcaron" unicode="&#x158;" horiz-adv-x="596" 
d="M418 0l-78 198q-24 59 -68 59h-67v-257h-132v667h229q53 0 97 -10.5t75 -33.5t48 -59.5t17 -89.5q0 -35 -10.5 -63t-28.5 -49.5t-42 -36.5t-51 -23v-1q8 -2 26 -15.5t33 -48.5l104 -237h-152zM405 463q0 48 -25.5 73t-86.5 25h-88v-199h80q62 0 91 27.5t29 73.5zM365 720
h-133l-108 151h119l56 -72l56 72h118z" />
    <glyph glyph-name="rcaron" unicode="&#x159;" horiz-adv-x="378" 
d="M354 390q-3 1 -13 2t-24 1q-27 0 -49.5 -9.5t-38.5 -25.5t-24.5 -36.5t-8.5 -42.5v-279h-129v500h123v-74h1q4 8 14.5 23t27.5 29.5t42.5 25t59.5 10.5q19 0 25 -2zM268 570h-133l-108 151h119l56 -72l56 72h118z" />
    <glyph glyph-name="Sacute" unicode="&#x15a;" horiz-adv-x="518" 
d="M477 190q0 -44 -15 -81t-46 -65t-77 -43.5t-108 -15.5q-57 0 -103 11.5t-82 29.5l6 118q38 -23 81 -36.5t89 -13.5q64 0 92 26.5t28 63.5q0 35 -28.5 57.5t-72.5 37.5l-27 9q-41 14 -72 32t-52 42.5t-31.5 57t-10.5 74.5q0 41 15 75.5t44.5 59.5t72 39t98.5 14
q54 0 95 -10t73 -24l-6 -114q-28 13 -67.5 26t-86.5 13q-50 0 -77 -20t-27 -58q0 -35 25.5 -55.5t73.5 -37.5l27 -10q82 -30 125.5 -75.5t43.5 -126.5zM297 720h-114l68 151h131z" />
    <glyph glyph-name="sacute" unicode="&#x15b;" horiz-adv-x="448" 
d="M407 145q0 -75 -51 -117t-152 -42q-44 0 -83.5 9t-77.5 26l6 102q34 -19 69.5 -30t73.5 -11q49 0 66.5 17t17.5 38q0 25 -18 39t-63 29l-12 4q-31 10 -56.5 23t-44 32t-28.5 44.5t-10 59.5q0 72 52 109t143 37q42 0 79.5 -9.5t62.5 -22.5l-6 -101q-35 19 -70 28t-58 9
q-38 0 -54.5 -12.5t-16.5 -32.5q0 -22 17.5 -35.5t56.5 -27.5l34 -12q25 -9 47.5 -21t39.5 -30t26.5 -43t9.5 -59zM259 570h-114l68 151h131z" />
    <glyph glyph-name="Scircumflex" unicode="&#x15c;" horiz-adv-x="518" 
d="M477 190q0 -44 -15 -81t-46 -65t-77 -43.5t-108 -15.5q-57 0 -103 11.5t-82 29.5l6 118q38 -23 81 -36.5t89 -13.5q64 0 92 26.5t28 63.5q0 35 -28.5 57.5t-72.5 37.5l-27 9q-41 14 -72 32t-52 42.5t-31.5 57t-10.5 74.5q0 41 15 75.5t44.5 59.5t72 39t98.5 14
q54 0 95 -10t73 -24l-6 -114q-28 13 -67.5 26t-86.5 13q-50 0 -77 -20t-27 -58q0 -35 25.5 -55.5t73.5 -37.5l27 -10q82 -30 125.5 -75.5t43.5 -126.5zM328 720l-56 73l-56 -73h-118l108 151h133l108 -151h-119z" />
    <glyph glyph-name="scircumflex" unicode="&#x15d;" horiz-adv-x="448" 
d="M407 145q0 -75 -51 -117t-152 -42q-44 0 -83.5 9t-77.5 26l6 102q34 -19 69.5 -30t73.5 -11q49 0 66.5 17t17.5 38q0 25 -18 39t-63 29l-12 4q-31 10 -56.5 23t-44 32t-28.5 44.5t-10 59.5q0 72 52 109t143 37q42 0 79.5 -9.5t62.5 -22.5l-6 -101q-35 19 -70 28t-58 9
q-38 0 -54.5 -12.5t-16.5 -32.5q0 -22 17.5 -35.5t56.5 -27.5l34 -12q25 -9 47.5 -21t39.5 -30t26.5 -43t9.5 -59zM285 570l-56 73l-56 -73h-118l108 151h132l109 -151h-119z" />
    <glyph glyph-name="Scedilla" unicode="&#x15e;" horiz-adv-x="518" 
d="M477 190q0 -44 -15 -81t-46 -65t-77 -43.5t-108 -15.5q-57 0 -103 11.5t-82 29.5l6 118q38 -23 81 -36.5t89 -13.5q64 0 92 26.5t28 63.5q0 35 -28.5 57.5t-72.5 37.5l-27 9q-41 14 -72 32t-52 42.5t-31.5 57t-10.5 74.5q0 41 15 75.5t44.5 59.5t72 39t98.5 14
q54 0 95 -10t73 -24l-6 -114q-28 13 -67.5 26t-86.5 13q-50 0 -77 -20t-27 -58q0 -35 25.5 -55.5t73.5 -37.5l27 -10q82 -30 125.5 -75.5t43.5 -126.5zM360 -120q0 -24 -7 -46t-23.5 -38.5t-44 -26t-69.5 -9.5q-14 0 -29.5 1t-33.5 4l3 79q8 -1 14 -1.5t12 -0.5
q38 0 54 17.5t16 49.5q0 20 -4 39h103q4 -17 6.5 -34t2.5 -34z" />
    <glyph glyph-name="scedilla" unicode="&#x15f;" horiz-adv-x="448" 
d="M407 145q0 -75 -51 -117t-152 -42q-44 0 -83.5 9t-77.5 26l6 102q34 -19 69.5 -30t73.5 -11q49 0 66.5 17t17.5 38q0 25 -18 39t-63 29l-12 4q-31 10 -56.5 23t-44 32t-28.5 44.5t-10 59.5q0 72 52 109t143 37q42 0 79.5 -9.5t62.5 -22.5l-6 -101q-35 19 -70 28t-58 9
q-38 0 -54.5 -12.5t-16.5 -32.5q0 -22 17.5 -35.5t56.5 -27.5l34 -12q25 -9 47.5 -21t39.5 -30t26.5 -43t9.5 -59zM325 -120q0 -24 -7 -46t-23.5 -38.5t-44 -26t-69.5 -9.5q-14 0 -29.5 1t-33.5 4l3 79q8 -1 14 -1.5t12 -0.5q38 0 54 17.5t16 49.5q0 20 -4 39h103
q4 -17 6.5 -34t2.5 -34z" />
    <glyph glyph-name="Scaron" unicode="&#x160;" horiz-adv-x="518" 
d="M477 190q0 -44 -15 -81t-46 -65t-77 -43.5t-108 -15.5q-57 0 -103 11.5t-82 29.5l6 118q38 -23 81 -36.5t89 -13.5q64 0 92 26.5t28 63.5q0 35 -28.5 57.5t-72.5 37.5l-27 9q-41 14 -72 32t-52 42.5t-31.5 57t-10.5 74.5q0 41 15 75.5t44.5 59.5t72 39t98.5 14
q54 0 95 -10t73 -24l-6 -114q-28 13 -67.5 26t-86.5 13q-50 0 -77 -20t-27 -58q0 -35 25.5 -55.5t73.5 -37.5l27 -10q82 -30 125.5 -75.5t43.5 -126.5zM333 720h-133l-108 151h119l56 -72l56 72h118z" />
    <glyph glyph-name="scaron" unicode="&#x161;" horiz-adv-x="448" 
d="M407 145q0 -75 -51 -117t-152 -42q-44 0 -83.5 9t-77.5 26l6 102q34 -19 69.5 -30t73.5 -11q49 0 66.5 17t17.5 38q0 25 -18 39t-63 29l-12 4q-31 10 -56.5 23t-44 32t-28.5 44.5t-10 59.5q0 72 52 109t143 37q42 0 79.5 -9.5t62.5 -22.5l-6 -101q-35 19 -70 28t-58 9
q-38 0 -54.5 -12.5t-16.5 -32.5q0 -22 17.5 -35.5t56.5 -27.5l34 -12q25 -9 47.5 -21t39.5 -30t26.5 -43t9.5 -59zM288 570h-133l-108 151h119l56 -72l56 72h118z" />
    <glyph glyph-name="Tcommaaccent" unicode="&#x162;" horiz-adv-x="509" 
d="M321 555v-555h-132v555h-175v112h481v-112h-174zM316 -120q0 -24 -7 -46t-23.5 -38.5t-44 -26t-69.5 -9.5q-14 0 -29.5 1t-33.5 4l3 79q8 -1 14 -1.5t12 -0.5q38 0 54 17.5t16 49.5q0 20 -4 39h103q4 -17 6.5 -34t2.5 -34z" />
    <glyph glyph-name="tcommaaccent" unicode="&#x163;" horiz-adv-x="397" 
d="M364 8q-13 -5 -45 -13.5t-72 -8.5q-72 0 -104.5 35.5t-32.5 107.5l1 267h-107v104h107l1 125l129 15l-1 -140h124v-104h-124l-1 -245q0 -33 13 -47.5t42 -14.5q17 0 36.5 5t27.5 8zM308 -120q0 -24 -7 -46t-23.5 -38.5t-44 -26t-69.5 -9.5q-14 0 -29.5 1t-33.5 4l3 79
q8 -1 14 -1.5t12 -0.5q38 0 54 17.5t16 49.5q0 20 -4 39h103q4 -17 6.5 -34t2.5 -34z" />
    <glyph glyph-name="Tcaron" unicode="&#x164;" horiz-adv-x="509" 
d="M321 555v-555h-132v555h-175v112h481v-112h-174zM322 720h-133l-108 151h119l56 -72l56 72h118z" />
    <glyph glyph-name="tcaron" unicode="&#x165;" horiz-adv-x="397" 
d="M364 8q-13 -5 -45 -13.5t-72 -8.5q-72 0 -104.5 35.5t-32.5 107.5l1 267h-107v104h107l1 125l129 15l-1 -140h124v-104h-124l-1 -245q0 -33 13 -47.5t42 -14.5q17 0 36.5 5t27.5 8zM401 592h-99l50 195h126z" />
    <glyph glyph-name="Tbar" unicode="&#x166;" horiz-adv-x="509" 
d="M321 555v-156h112v-107h-112v-292h-132v292h-113v107h113v156h-175v112h481v-112h-174z" />
    <glyph glyph-name="tbar" unicode="&#x167;" horiz-adv-x="397" 
d="M111 396h-107v104h107l1 125l129 15l-1 -140h124v-104h-124l-1 -85h125v-104h-125v-56q0 -33 13 -47.5t42 -14.5q17 0 36.5 5t27.5 8l6 -94q-13 -5 -45 -13.5t-72 -8.5q-72 0 -104.5 35.5t-32.5 107.5v78h-106v104h107v85z" />
    <glyph glyph-name="Utilde" unicode="&#x168;" horiz-adv-x="645" 
d="M571 232q0 -133 -65.5 -190t-189.5 -57q-58 0 -103.5 12.5t-76.5 41.5t-47 76.5t-16 116.5v435h132v-435q0 -66 29.5 -101.5t87.5 -35.5q60 0 88.5 35t28.5 102v435h132v-435zM498 873q0 -39 -7.5 -64.5t-21 -40.5t-32.5 -21t-41 -6q-15 0 -32 5t-33.5 11.5t-31 11.5
t-24.5 5q-16 0 -22 -9.5t-6 -23.5h-94q0 39 7.5 64.5t21 40.5t32 21t40.5 6q15 0 32 -5.5t33.5 -11.5t31.5 -11.5t24 -5.5q16 0 22 10t6 24h95z" />
    <glyph glyph-name="utilde" unicode="&#x169;" horiz-adv-x="573" 
d="M388 0l-8 61h-1q-7 -9 -21 -22t-34.5 -24.5t-45.5 -20t-55 -8.5q-35 0 -64 9.5t-50 30t-32.5 52.5t-11.5 76v346h129v-306q0 -18 3.5 -35t13 -30t25.5 -21t40 -8q19 0 37 7.5t31.5 20.5t21.5 30t8 36v306h129v-500h-115zM460 723q0 -39 -7.5 -64.5t-21 -40.5t-32.5 -21
t-41 -6q-15 0 -32 5t-33.5 11.5t-31 11.5t-24.5 5q-16 0 -22 -9.5t-6 -23.5h-94q0 39 7.5 64.5t21 40.5t32 21t40.5 6q15 0 32.5 -5.5t34 -11.5t31 -11.5t24.5 -5.5q16 0 21.5 10t5.5 24h95z" />
    <glyph glyph-name="Umacron" unicode="&#x16a;" horiz-adv-x="645" 
d="M571 232q0 -133 -65.5 -190t-189.5 -57q-58 0 -103.5 12.5t-76.5 41.5t-47 76.5t-16 116.5v435h132v-435q0 -66 29.5 -101.5t87.5 -35.5q60 0 88.5 35t28.5 102v435h132v-435zM144 742v107h357v-107h-357z" />
    <glyph glyph-name="umacron" unicode="&#x16b;" horiz-adv-x="573" 
d="M388 0l-8 61h-1q-7 -9 -21 -22t-34.5 -24.5t-45.5 -20t-55 -8.5q-35 0 -64 9.5t-50 30t-32.5 52.5t-11.5 76v346h129v-306q0 -18 3.5 -35t13 -30t25.5 -21t40 -8q19 0 37 7.5t31.5 20.5t21.5 30t8 36v306h129v-500h-115zM108 601v107h357v-107h-357z" />
    <glyph glyph-name="Ubreve" unicode="&#x16c;" horiz-adv-x="645" 
d="M571 232q0 -133 -65.5 -190t-189.5 -57q-58 0 -103.5 12.5t-76.5 41.5t-47 76.5t-16 116.5v435h132v-435q0 -66 29.5 -101.5t87.5 -35.5q60 0 88.5 35t28.5 102v435h132v-435zM484 870q0 -72 -43.5 -114t-118.5 -42t-119 42t-44 114h102q0 -27 16 -46t45 -19t44.5 19
t15.5 47z" />
    <glyph glyph-name="ubreve" unicode="&#x16d;" horiz-adv-x="573" 
d="M388 0l-8 61h-1q-7 -9 -21 -22t-34.5 -24.5t-45.5 -20t-55 -8.5q-35 0 -64 9.5t-50 30t-32.5 52.5t-11.5 76v346h129v-306q0 -18 3.5 -35t13 -30t25.5 -21t40 -8q19 0 37 7.5t31.5 20.5t21.5 30t8 36v306h129v-500h-115zM446 720q0 -72 -43.5 -114t-118.5 -42t-119 42
t-44 114h102q0 -27 16 -46t45 -19t44.5 19t15.5 47z" />
    <glyph glyph-name="Uring" unicode="&#x16e;" horiz-adv-x="645" 
d="M571 232q0 -133 -65.5 -190t-189.5 -57q-58 0 -103.5 12.5t-76.5 41.5t-47 76.5t-16 116.5v435h132v-435q0 -66 29.5 -101.5t87.5 -35.5q60 0 88.5 35t28.5 102v435h132v-435zM438 811q0 -23 -9 -42.5t-24.5 -34t-36.5 -23t-46 -8.5t-46 8.5t-36.5 23t-24.5 34t-9 42.5
q0 47 33 77.5t83 30.5t83 -30.5t33 -77.5zM365 811q0 19 -12.5 31.5t-30.5 12.5t-30.5 -12.5t-12.5 -31.5q0 -18 12.5 -31t30.5 -13t30.5 13t12.5 31z" />
    <glyph glyph-name="uring" unicode="&#x16f;" horiz-adv-x="573" 
d="M388 0l-8 61h-1q-7 -9 -21 -22t-34.5 -24.5t-45.5 -20t-55 -8.5q-35 0 -64 9.5t-50 30t-32.5 52.5t-11.5 76v346h129v-306q0 -18 3.5 -35t13 -30t25.5 -21t40 -8q19 0 37 7.5t31.5 20.5t21.5 30t8 36v306h129v-500h-115zM403 661q0 -23 -9 -42.5t-25 -34t-37 -23
t-46 -8.5t-46 8.5t-36.5 23t-24.5 34t-9 42.5q0 47 33 77.5t83 30.5t83.5 -30.5t33.5 -77.5zM329 661q0 19 -12.5 31.5t-30.5 12.5t-30.5 -12.5t-12.5 -31.5q0 -18 12.5 -31t30.5 -13t30.5 13t12.5 31z" />
    <glyph glyph-name="Uhungarumlaut" unicode="&#x170;" horiz-adv-x="645" 
d="M571 232q0 -133 -65.5 -190t-189.5 -57q-58 0 -103.5 12.5t-76.5 41.5t-47 76.5t-16 116.5v435h132v-435q0 -66 29.5 -101.5t87.5 -35.5q60 0 88.5 35t28.5 102v435h132v-435zM474 720h-115l68 151h131zM254 720h-115l68 151h131z" />
    <glyph glyph-name="uhungarumlaut" unicode="&#x171;" horiz-adv-x="573" 
d="M388 0l-8 61h-1q-7 -9 -21 -22t-34.5 -24.5t-45.5 -20t-55 -8.5q-35 0 -64 9.5t-50 30t-32.5 52.5t-11.5 76v346h129v-306q0 -18 3.5 -35t13 -30t25.5 -21t40 -8q19 0 37 7.5t31.5 20.5t21.5 30t8 36v306h129v-500h-115zM438 570h-115l68 151h131zM218 570h-115l68 151
h131z" />
    <glyph glyph-name="Uogonek" unicode="&#x172;" horiz-adv-x="645" 
d="M571 232q0 -48 -7.5 -82.5t-21.5 -60t-33.5 -44t-43.5 -33.5q-8 -5 -21.5 -15t-27 -23.5t-23.5 -29.5t-10 -33q0 -35 16.5 -52t54.5 -17q15 0 25 2l3 -79q-17 -3 -32.5 -4t-29.5 -1q-42 0 -70 9.5t-44.5 26t-23.5 38.5t-7 46q0 35 20.5 62.5t44.5 46.5q-4 -2 -11.5 -3
t-12.5 -1q-58 0 -103.5 12.5t-76.5 41.5t-47 76.5t-16 116.5v435h132v-435q0 -66 29.5 -101.5t87.5 -35.5q60 0 88.5 35t28.5 102v435h132v-435z" />
    <glyph glyph-name="uogonek" unicode="&#x173;" horiz-adv-x="573" 
d="M516 -235q-17 -3 -32.5 -4t-29.5 -1q-42 0 -70 9.5t-44.5 26t-23.5 38.5t-7 46q0 22 9.5 41.5t22.5 35t26 26.5t21 17l-8 61h-1q-7 -9 -21 -22t-34.5 -24.5t-45.5 -20t-55 -8.5q-35 0 -64 9.5t-50 30t-32.5 52.5t-11.5 76v346h129v-306q0 -18 3.5 -35t13 -30t25.5 -21
t40 -8q19 0 37 7.5t31.5 20.5t21.5 30t8 36v306h129v-500h-7q-6 0 -19 -7.5t-26.5 -19.5t-23.5 -28t-10 -34q0 -35 16.5 -52t54.5 -17q15 0 25 2z" />
    <glyph glyph-name="Wcircumflex" unicode="&#x174;" horiz-adv-x="922" 
d="M736 0h-162l-114 541h-1l-115 -541h-161l-162 667h131l111 -541h2l112 541h174l106 -541h1l115 541h128zM523 720l-56 73l-56 -73h-118l108 151h133l108 -151h-119z" />
    <glyph glyph-name="wcircumflex" unicode="&#x175;" horiz-adv-x="767" 
d="M623 0h-149l-90 378h-1l-91 -378h-148l-125 500h123l82 -378h1l86 378h153l86 -378h1l81 378h116zM436 570l-56 73l-56 -73h-118l108 151h132l109 -151h-119z" />
    <glyph glyph-name="Ycircumflex" unicode="&#x176;" horiz-adv-x="586" 
d="M359 229v-229h-133v229l-219 438h144l144 -318h1l146 318h136zM354 720l-56 73l-56 -73h-118l108 151h133l108 -151h-119z" />
    <glyph glyph-name="ycircumflex" unicode="&#x177;" horiz-adv-x="539" 
d="M527 500q-11 -32 -28 -79t-38 -104t-45.5 -122t-51 -132.5t-54 -136t-54.5 -131.5h-140q33 70 56.5 126.5t31.5 78.5l-189 500h135l120 -376h1l127 376h129zM321 570l-56 73l-56 -73h-118l108 151h132l109 -151h-119z" />
    <glyph glyph-name="Ydieresis" unicode="&#x178;" horiz-adv-x="586" 
d="M359 229v-229h-133v229l-219 438h144l144 -318h1l146 318h136zM265 792q0 -30 -21.5 -51.5t-52.5 -21.5q-30 0 -52 21.5t-22 51.5q0 31 22 52.5t52 21.5q31 0 52.5 -21.5t21.5 -52.5zM494 792q0 -30 -21.5 -51.5t-52.5 -21.5q-30 0 -52 21.5t-22 51.5q0 31 22 52.5
t52 21.5q31 0 52.5 -21.5t21.5 -52.5z" />
    <glyph glyph-name="Zacute" unicode="&#x179;" horiz-adv-x="532" 
d="M210 109l287 -1v-108h-489l298 558l-261 1v108h462zM304 720h-114l68 151h131z" />
    <glyph glyph-name="zacute" unicode="&#x17a;" horiz-adv-x="489" 
d="M223 104l226 -1v-103h-421l232 396l-197 1v103h392zM281 570h-114l68 151h131z" />
    <glyph glyph-name="Zdotaccent" unicode="&#x17b;" horiz-adv-x="532" 
d="M210 109l287 -1v-108h-489l298 558l-261 1v108h462zM347 795q0 -33 -23.5 -56t-55.5 -23q-33 0 -56 23t-23 56q0 32 23 55.5t56 23.5q32 0 55.5 -23.5t23.5 -55.5z" />
    <glyph glyph-name="zdotaccent" unicode="&#x17c;" horiz-adv-x="489" 
d="M223 104l226 -1v-103h-421l232 396l-197 1v103h392zM323 648q0 -33 -23.5 -56t-55.5 -23q-33 0 -56 23t-23 56q0 32 23 55.5t56 23.5q32 0 55.5 -23.5t23.5 -55.5z" />
    <glyph glyph-name="Zcaron" unicode="&#x17d;" horiz-adv-x="532" 
d="M210 109l287 -1v-108h-489l298 558l-261 1v108h462zM345 720h-133l-108 151h119l56 -72l56 72h118z" />
    <glyph glyph-name="zcaron" unicode="&#x17e;" horiz-adv-x="489" 
d="M223 104l226 -1v-103h-421l232 396l-197 1v103h392zM311 570h-133l-108 151h119l56 -72l56 72h118z" />
    <glyph glyph-name="longs" unicode="&#x17f;" horiz-adv-x="369" 
d="M240 0h-129v396h-107v104h107v61q0 81 44.5 119.5t121.5 38.5q27 0 48.5 -4t29.5 -6l-6 -100q-5 2 -18 3.5t-27 1.5q-30 0 -47 -17t-17 -52v-545z" />
    <glyph glyph-name="uni018F" unicode="&#x18f;" horiz-adv-x="620" 
d="M37 328q0 6 0.5 16t1.5 20l2 21q1 11 3 18h401v16q0 29 -7.5 56.5t-26.5 49t-52 34.5t-84 13q-60 0 -105 -13t-91 -33l-7 107q37 21 93.5 35t128.5 14q86 0 142 -24.5t88.5 -69.5t45.5 -108.5t13 -142.5t-15.5 -143.5t-50 -111t-89 -72t-132.5 -25.5q-134 0 -196.5 83.5
t-62.5 259.5zM176 288q0 -36 5 -70.5t19 -61.5t38.5 -44t64.5 -17q37 0 63 16.5t42.5 44t24 62t7.5 70.5h-264z" />
    <glyph glyph-name="florin" unicode="&#x192;" 
d="M456 291h-106v-148q0 -80 -42.5 -118.5t-116.5 -38.5q-26 0 -45 3.5t-26 5.5l6 98q5 -2 15.5 -4t24.5 -2q59 0 59 72v132h-111l6 85h105v149q0 79 42.5 117.5t117.5 38.5q26 0 45 -3.5t26 -5.5l-6 -97q-5 2 -15.5 3.5t-24.5 1.5q-60 0 -60 -71v-133h112z" />
    <glyph glyph-name="Aringacute" unicode="&#x1fa;" horiz-adv-x="659" 
d="M435 811q0 -23 -9 -42.5t-24.5 -34t-36.5 -23t-46 -8.5t-46 8.5t-36.5 23t-24.5 34t-9 42.5q0 47 33 77.5t83 30.5t83 -30.5t33 -77.5zM362 811q0 19 -12.5 31.5t-30.5 12.5t-30.5 -12.5t-12.5 -31.5q0 -18 12.5 -31t30.5 -13t30.5 13t12.5 31zM481 0l-45 153h-230
l-46 -153h-133l216 667h167l212 -667h-141zM322 551h-1l-86 -291h173zM348 949h-114l68 151h131z" />
    <glyph glyph-name="aringacute" unicode="&#x1fb;" horiz-adv-x="530" 
d="M287 799h-114l68 151h131zM349 0l-7 65h-1q-5 -10 -16.5 -23.5t-30.5 -26t-45.5 -21t-60.5 -8.5q-77 0 -114.5 41.5t-37.5 106.5q0 41 16.5 72t46 52t70.5 31.5t91 10.5q24 0 44 -1.5t28 -2.5v43q0 40 -26 56t-70 16q-42 0 -80 -10t-75 -27l-6 102q39 18 85 28t98 10
q43 0 80.5 -7t65 -26.5t43 -53t15.5 -87.5v-340h-113zM332 217q-5 1 -19 2t-34 1q-19 0 -39 -3.5t-36.5 -12.5t-27 -24t-10.5 -37q0 -31 18.5 -46.5t47.5 -15.5q19 0 37.5 8.5t32 23.5t22 36t8.5 45v23zM377 661q0 -23 -9 -42.5t-25 -34t-37 -23t-46 -8.5t-46 8.5t-36.5 23
t-24.5 34t-9 42.5q0 47 33 77.5t83 30.5t83.5 -30.5t33.5 -77.5zM303 661q0 19 -12.5 31.5t-30.5 12.5t-30.5 -12.5t-12.5 -31.5q0 -18 12.5 -31t30.5 -13t30.5 13t12.5 31z" />
    <glyph glyph-name="AEacute" unicode="&#x1fc;" horiz-adv-x="872" 
d="M441 0v171h-198l-84 -171h-140l339 667h460v-108l-245 -1v-159h223v-107h-223v-183l250 -1v-108h-382zM441 581h-1l-149 -303h150v303zM584 720h-114l68 151h131z" />
    <glyph glyph-name="aeacute" unicode="&#x1fd;" horiz-adv-x="804" 
d="M767 262q0 -7 -0.5 -15.5t-1 -16.5t-0.5 -14h-305v-11q0 -22 6 -42.5t20.5 -37t37.5 -26.5t58 -10q43 0 81.5 10t72.5 26l6 -101q-29 -17 -75 -27.5t-103 -10.5q-48 0 -81.5 10.5t-55 26t-33 32t-14.5 28.5h-1q-6 -12 -19.5 -28.5t-36.5 -32t-55.5 -26t-74.5 -10.5
q-81 0 -119 41t-38 108q0 42 16 74t45 53.5t70.5 32t91.5 10.5q25 0 45 -1.5t28 -3.5v39q0 40 -26 56t-70 16q-42 0 -80 -10t-75 -26l-6 101q39 18 83.5 28t97.5 10q38 0 65 -8t44.5 -19.5t26.5 -23.5t12 -21h1q6 9 18.5 21t32.5 23.5t47 19.5t62 8q104 0 153 -58.5
t49 -181.5v-12zM332 223q-5 2 -19.5 3.5t-32.5 1.5q-23 0 -44 -5t-36.5 -14.5t-24.5 -25t-9 -36.5q0 -33 18.5 -49.5t47.5 -16.5q19 0 37.5 9t32 24.5t22 37t8.5 47.5v24zM647 302q0 22 -3 44t-12 39.5t-26 28.5t-45 11q-27 0 -46.5 -10.5t-32 -28t-18.5 -39.5t-6 -45h189z
M460 570h-114l68 151h131z" />
    <glyph glyph-name="Oslashacute" unicode="&#x1fe;" horiz-adv-x="617" 
d="M584 334q0 -79 -11 -143.5t-42 -110t-85 -70.5t-140 -25q-38 0 -71 6l-30 -98h-65l36 114q-43 17 -70 47.5t-42.5 72.5t-21 94t-5.5 113q0 78 11.5 142.5t42 110t84.5 70.5t140 25q39 0 71 -6l30 98h65l-35 -114q43 -17 70 -47.5t42 -72.5t20.5 -94t5.5 -112zM455 377
q0 115 -50 162l-143 -444q21 -6 47 -6q75 0 110.5 51t35.5 150v87zM359 572q-21 6 -47 6q-74 0 -109.5 -51t-35.5 -150v-87q0 -57 11.5 -97.5t37.5 -64.5zM351 720h-114l68 151h131z" />
    <glyph glyph-name="oslashacute" unicode="&#x1ff;" horiz-adv-x="537" 
d="M496 252q0 -61 -12.5 -110t-39.5 -83.5t-70.5 -53.5t-106.5 -19q-26 0 -47 3l-31 -100h-62l35 115q-66 26 -93.5 88.5t-27.5 155.5q0 61 12.5 110t39.5 83.5t71 53.5t107 19q24 0 45 -3l30 99h64l-34 -113q66 -27 93 -89.5t27 -155.5zM370 290q0 63 -31 94l-96 -302
q6 -1 12 -1.5t12 -0.5q26 0 45.5 10t32 28t19 42t6.5 52v78zM293 418q-5 2 -11 2h-12q-53 0 -78 -37.5t-25 -94.5v-78q0 -61 31 -94zM291 570h-114l68 151h131z" />
    <glyph glyph-name="Scommaaccent" unicode="&#x218;" horiz-adv-x="518" 
d="M477 190q0 -44 -15 -81t-46 -65t-77 -43.5t-108 -15.5q-57 0 -103 11.5t-82 29.5l6 118q38 -23 81 -36.5t89 -13.5q64 0 92 26.5t28 63.5q0 35 -28.5 57.5t-72.5 37.5l-27 9q-41 14 -72 32t-52 42.5t-31.5 57t-10.5 74.5q0 41 15 75.5t44.5 59.5t72 39t98.5 14
q54 0 95 -10t73 -24l-6 -114q-28 13 -67.5 26t-86.5 13q-50 0 -77 -20t-27 -58q0 -35 25.5 -55.5t73.5 -37.5l27 -10q82 -30 125.5 -75.5t43.5 -126.5zM261 -247h-99l50 195h126z" />
    <glyph glyph-name="scommaaccent" unicode="&#x219;" horiz-adv-x="448" 
d="M407 145q0 -75 -51 -117t-152 -42q-44 0 -83.5 9t-77.5 26l6 102q34 -19 69.5 -30t73.5 -11q49 0 66.5 17t17.5 38q0 25 -18 39t-63 29l-12 4q-31 10 -56.5 23t-44 32t-28.5 44.5t-10 59.5q0 72 52 109t143 37q42 0 79.5 -9.5t62.5 -22.5l-6 -101q-35 19 -70 28t-58 9
q-38 0 -54.5 -12.5t-16.5 -32.5q0 -22 17.5 -35.5t56.5 -27.5l34 -12q25 -9 47.5 -21t39.5 -30t26.5 -43t9.5 -59zM227 -247h-99l50 195h126z" />
    <glyph glyph-name="uni021A" unicode="&#x21a;" horiz-adv-x="509" 
d="M321 555v-555h-132v555h-175v112h481v-112h-174zM257 -247h-99l50 195h126z" />
    <glyph glyph-name="uni021B" unicode="&#x21b;" horiz-adv-x="397" 
d="M364 8q-13 -5 -45 -13.5t-72 -8.5q-72 0 -104.5 35.5t-32.5 107.5l1 267h-107v104h107l1 125l129 15l-1 -140h124v-104h-124l-1 -245q0 -33 13 -47.5t42 -14.5q17 0 36.5 5t27.5 8zM201 -247h-99l50 195h126z" />
    <glyph glyph-name="uni0237" unicode="&#x237;" horiz-adv-x="279" 
d="M211 -59q0 -83 -43.5 -121.5t-118.5 -38.5q-27 0 -46.5 4t-26.5 6l6 100q5 -2 16 -3.5t24 -1.5q59 0 59 69v545h130v-559z" />
    <glyph glyph-name="uni0259" unicode="&#x259;" horiz-adv-x="509" 
d="M36 237q0 8 0.5 16.5t1 16.5t0.5 14h305v11q0 22 -6 42.5t-20.5 37t-37.5 26.5t-57 10q-43 0 -82 -10t-72 -26l-6 101q29 17 73.5 27.5t100.5 10.5q70 0 115.5 -18.5t72 -52.5t37 -82.5t10.5 -108.5q0 -59 -12.5 -108t-40.5 -84t-72 -54.5t-108 -19.5q-104 0 -153 58.5
t-49 181.5v11zM157 198q0 -22 3 -44t12 -39.5t26 -28.5t45 -11q27 0 46.5 10.5t31.5 28t18 39.5t6 45h-188z" />
    <glyph glyph-name="uni02BB" unicode="&#x2bb;" horiz-adv-x="280" 
d="M172 404h-133l97 263h105z" />
    <glyph glyph-name="afii57929" unicode="&#x2bc;" horiz-adv-x="280" 
d="M144 404h-105l69 263h133z" />
    <glyph glyph-name="circumflex" unicode="&#x2c6;" horiz-adv-x="382" 
d="M247 560l-56 73l-56 -73h-119l108 151h133l108 -151h-118z" />
    <glyph glyph-name="caron" unicode="&#x2c7;" horiz-adv-x="382" 
d="M257 560h-133l-108 151h119l56 -72l56 72h118z" />
    <glyph glyph-name="uni02C9" unicode="&#x2c9;" horiz-adv-x="382" 
d="M12 604v107h357v-107h-357z" />
    <glyph glyph-name="breve" unicode="&#x2d8;" horiz-adv-x="382" 
d="M353 711q0 -72 -43.5 -114t-118.5 -42t-119 42t-44 114h102q0 -27 16 -46t45 -19t44.5 19t15.5 47z" />
    <glyph glyph-name="dotaccent" unicode="&#x2d9;" horiz-adv-x="382" 
d="M270 644q0 -33 -23.5 -56t-55.5 -23q-33 0 -56 23t-23 56q0 32 23 55.5t56 23.5q32 0 55.5 -23.5t23.5 -55.5z" />
    <glyph glyph-name="ring" unicode="&#x2da;" horiz-adv-x="382" 
d="M307 651q0 -23 -9 -42.5t-24.5 -34t-36.5 -23t-46 -8.5t-46 8.5t-36.5 23t-24.5 34t-9 42.5q0 47 33 77.5t83 30.5t83 -30.5t33 -77.5zM234 651q0 19 -12.5 31.5t-30.5 12.5t-30.5 -12.5t-12.5 -31.5q0 -18 12.5 -31t30.5 -13t30.5 13t12.5 31z" />
    <glyph glyph-name="ogonek" unicode="&#x2db;" horiz-adv-x="382" 
d="M265 0q-8 -5 -19 -14.5t-21 -21.5t-17 -25.5t-7 -27.5q0 -35 16.5 -52t54.5 -17q15 0 25 2l3 -79q-17 -3 -32.5 -4t-29.5 -1q-42 0 -70 9.5t-44.5 26t-23.5 38.5t-7 46q0 22 9.5 42t22 35.5t26 26.5t21.5 16h93z" />
    <glyph glyph-name="tilde" unicode="&#x2dc;" horiz-adv-x="382" 
d="M363 713q0 -39 -7.5 -64.5t-21 -40.5t-32 -21t-40.5 -6q-15 0 -32.5 5t-34 11.5t-31 11.5t-24.5 5q-15 0 -21 -9.5t-6 -23.5h-95q0 39 7.5 64.5t21 40.5t32 21t41.5 6q15 0 32 -5.5t33.5 -11.5t31 -11.5t24.5 -5.5q16 0 22 10t6 24h94z" />
    <glyph glyph-name="hungarumlaut" unicode="&#x2dd;" horiz-adv-x="382" 
d="M316 560h-115l68 151h131zM96 560h-115l68 151h131z" />
    <glyph glyph-name="gravecomb" unicode="&#x300;" horiz-adv-x="1" 
d="M-296 570l-84 151h131l68 -151h-115z" />
    <glyph glyph-name="acutecomb" unicode="&#x301;" horiz-adv-x="1" 
d="M-245 570h-114l68 151h131z" />
    <glyph glyph-name="uni0302" unicode="&#x302;" horiz-adv-x="1" 
d="M-212 570l-56 73l-56 -73h-118l108 151h132l109 -151h-119z" />
    <glyph glyph-name="tildecomb" unicode="&#x303;" horiz-adv-x="1" 
d="M-98 723q0 -39 -7.5 -64.5t-21 -40.5t-32.5 -21t-41 -6q-15 0 -32 5t-33.5 11.5t-31 11.5t-24.5 5q-16 0 -22 -9.5t-6 -23.5h-94q0 39 7.5 64.5t21 40.5t32 21t40.5 6q15 0 32.5 -5.5t34 -11.5t31 -11.5t24.5 -5.5q16 0 21.5 10t5.5 24h95z" />
    <glyph glyph-name="uni0306" unicode="&#x306;" horiz-adv-x="1" 
d="M-28 726q0 -72 -43.5 -114t-118.5 -42t-119 42t-44 114h102q0 -27 16 -46t45 -19t44.5 19t15.5 47z" />
    <glyph glyph-name="uni0308" unicode="&#x308;" horiz-adv-x="1" 
d="M-231 647q0 -30 -21.5 -51.5t-52.5 -21.5t-52.5 21.5t-21.5 51.5q0 31 21.5 52.5t52.5 21.5t52.5 -21.5t21.5 -52.5zM-2 647q0 -30 -21.5 -51.5t-51.5 -21.5q-31 0 -52.5 21.5t-21.5 51.5q0 31 21.5 52.5t52.5 21.5q30 0 51.5 -21.5t21.5 -52.5z" />
    <glyph glyph-name="uni030A" unicode="&#x30a;" horiz-adv-x="1" 
d="M-74 661q0 -23 -9 -42.5t-24.5 -34t-36.5 -23t-46 -8.5t-46 8.5t-36.5 23t-24.5 34t-9 42.5q0 47 33 77.5t83 30.5t83 -30.5t33 -77.5zM-147 661q0 19 -12.5 31.5t-30.5 12.5t-30.5 -12.5t-12.5 -31.5q0 -18 12.5 -31t30.5 -13t30.5 13t12.5 31z" />
    <glyph glyph-name="uni0313" unicode="&#x313;" horiz-adv-x="1" 
d="M-139 404h-105l69 263h133z" />
    <glyph glyph-name="uni0327" unicode="&#x327;" horiz-adv-x="1" 
d="M-87 -120q0 -24 -7 -46t-23.5 -38.5t-44 -26t-69.5 -9.5q-14 0 -29.5 1t-33.5 4l3 79q8 -1 14 -1.5t12 -0.5q38 0 54 17.5t16 49.5q0 20 -4 39h103q4 -17 6.5 -34t2.5 -34z" />
    <glyph glyph-name="uni0335" unicode="&#x335;" horiz-adv-x="1" 
d="M-369 197v107h357v-107h-357z" />
    <glyph glyph-name="Delta" unicode="&#x394;" horiz-adv-x="659" 
d="M27 0l216 667h167l212 -667h-595zM322 551h-1l-132 -443h263z" />
    <glyph glyph-name="Omega" unicode="&#x3a9;" horiz-adv-x="642" 
d="M359 0v206q12 1 29.5 8t33.5 24t27 45t11 70v73q0 72 -33.5 109t-104.5 37q-140 0 -140 -146v-73q0 -42 11 -70t27 -45t33.5 -24t29.5 -8v-206h-236v110h132v33q-40 12 -65.5 33t-40.5 51.5t-20.5 71.5t-5.5 93q0 65 11.5 118.5t42 91.5t84.5 59t140 21t138.5 -21
t81.5 -59t39 -91.5t10 -118.5q0 -59 -7 -101t-23 -71t-40.5 -47.5t-60.5 -29.5v-33h131v-110h-235z" />
    <glyph glyph-name="mu" unicode="&#x3bc;" horiz-adv-x="575" 
d="M393 0l-8 64h-2q-5 -9 -16 -22t-28 -25.5t-38.5 -21.5t-45.5 -9q-31 0 -49 9.5t-23 15.5q2 -20 6 -78t4 -138h-124v705h130v-306q0 -18 3.5 -35t13 -30t25 -21t39.5 -8q19 0 37 8t31.5 21t21.5 30t8 36v305h130v-500h-115z" />
    <glyph glyph-name="pi" unicode="&#x3c0;" horiz-adv-x="700" 
d="M647 4q-10 -5 -37 -11.5t-64 -6.5q-64 0 -94 34t-30 109v267h-164v-396h-130v396h-101v104h620v-104h-95v-244q0 -32 8.5 -47t32.5 -15q17 0 30 4t18 6z" />
    <glyph glyph-name="Wgrave" unicode="&#x1e80;" horiz-adv-x="922" 
d="M736 0h-162l-114 541h-1l-115 -541h-161l-162 667h131l111 -541h2l112 541h174l106 -541h1l115 541h128zM441 720l-84 151h131l68 -151h-115z" />
    <glyph glyph-name="wgrave" unicode="&#x1e81;" horiz-adv-x="767" 
d="M623 0h-149l-90 378h-1l-91 -378h-148l-125 500h123l82 -378h1l86 378h153l86 -378h1l81 378h116zM352 570l-84 151h131l68 -151h-115z" />
    <glyph glyph-name="Wacute" unicode="&#x1e82;" horiz-adv-x="922" 
d="M736 0h-162l-114 541h-1l-115 -541h-161l-162 667h131l111 -541h2l112 541h174l106 -541h1l115 541h128zM497 720h-114l68 151h131z" />
    <glyph glyph-name="wacute" unicode="&#x1e83;" horiz-adv-x="767" 
d="M623 0h-149l-90 378h-1l-91 -378h-148l-125 500h123l82 -378h1l86 378h153l86 -378h1l81 378h116zM403 570h-114l68 151h131z" />
    <glyph glyph-name="Wdieresis" unicode="&#x1e84;" horiz-adv-x="922" 
d="M736 0h-162l-114 541h-1l-115 -541h-161l-162 667h131l111 -541h2l112 541h174l106 -541h1l115 541h128zM421 792q0 -30 -21.5 -51.5t-52.5 -21.5t-52.5 21.5t-21.5 51.5q0 31 21.5 52.5t52.5 21.5t52.5 -21.5t21.5 -52.5zM650 792q0 -30 -21.5 -51.5t-51.5 -21.5
q-31 0 -52.5 21.5t-21.5 51.5q0 31 21.5 52.5t52.5 21.5q30 0 51.5 -21.5t21.5 -52.5z" />
    <glyph glyph-name="wdieresis" unicode="&#x1e85;" horiz-adv-x="767" 
d="M623 0h-149l-90 378h-1l-91 -378h-148l-125 500h123l82 -378h1l86 378h153l86 -378h1l81 378h116zM343 647q0 -30 -21.5 -51.5t-52.5 -21.5t-52.5 21.5t-21.5 51.5q0 31 21.5 52.5t52.5 21.5t52.5 -21.5t21.5 -52.5zM572 647q0 -30 -21.5 -51.5t-51.5 -21.5
q-31 0 -52.5 21.5t-21.5 51.5q0 31 21.5 52.5t52.5 21.5q30 0 51.5 -21.5t21.5 -52.5z" />
    <glyph glyph-name="Ygrave" unicode="&#x1ef2;" horiz-adv-x="586" 
d="M359 229v-229h-133v229l-219 438h144l144 -318h1l146 318h136zM272 720l-84 151h131l68 -151h-115z" />
    <glyph glyph-name="ygrave" unicode="&#x1ef3;" horiz-adv-x="539" 
d="M527 500q-11 -32 -28 -79t-38 -104t-45.5 -122t-51 -132.5t-54 -136t-54.5 -131.5h-140q33 70 56.5 126.5t31.5 78.5l-189 500h135l120 -376h1l127 376h129zM240 570l-84 151h131l68 -151h-115z" />
    <glyph glyph-name="uni2007" unicode="&#x2007;" 
 />
    <glyph glyph-name="uni2008" unicode="&#x2008;" horiz-adv-x="257" 
 />
    <glyph glyph-name="uni200B" unicode="&#x200b;" horiz-adv-x="0" 
 />
    <glyph glyph-name="endash" unicode="&#x2013;" horiz-adv-x="528" 
d="M14 227v107h500v-107h-500z" />
    <glyph glyph-name="emdash" unicode="&#x2014;" horiz-adv-x="1028" 
d="M14 227v107h1000v-107h-1000z" />
    <glyph glyph-name="quoteleft" unicode="&#x2018;" horiz-adv-x="280" 
d="M172 404h-133l97 263h105z" />
    <glyph glyph-name="quoteright" unicode="&#x2019;" horiz-adv-x="280" 
d="M144 404h-105l69 263h133z" />
    <glyph glyph-name="quotesinglbase" unicode="&#x201a;" horiz-adv-x="280" 
d="M134 -125h-105l69 263h133z" />
    <glyph glyph-name="quotedblleft" unicode="&#x201c;" horiz-adv-x="505" 
d="M397 404h-133l97 263h105zM172 404h-133l97 263h105z" />
    <glyph glyph-name="quotedblright" unicode="&#x201d;" horiz-adv-x="505" 
d="M369 404h-105l69 263h133zM144 404h-105l69 263h133z" />
    <glyph glyph-name="quotedblbase" unicode="&#x201e;" horiz-adv-x="513" 
d="M359 -125h-105l69 263h133zM134 -125h-105l69 263h133z" />
    <glyph glyph-name="dagger" unicode="&#x2020;" horiz-adv-x="520" 
d="M325 396v-396h-130v396h-156v104h156v196h130v-196h156v-104h-156z" />
    <glyph glyph-name="daggerdbl" unicode="&#x2021;" horiz-adv-x="520" 
d="M325 174v-174h-130v174h-156v105h156v138h-156v105h156v174h130v-174h156v-105h-156v-138h156v-105h-156z" />
    <glyph glyph-name="bullet" unicode="&#x2022;" horiz-adv-x="398" 
d="M349 340q0 -33 -11 -60t-31 -46.5t-47.5 -30.5t-59.5 -11t-59.5 11t-48 30.5t-32 47t-11.5 59.5t11.5 59t31.5 47t47.5 31.5t59.5 11.5q33 0 60.5 -11t47.5 -31t31 -47t11 -60z" />
    <glyph glyph-name="ellipsis" unicode="&#x2026;" horiz-adv-x="843" 
d="M780 72q0 -18 -7 -33.5t-18.5 -27t-27 -18.5t-33.5 -7t-34 7t-27.5 18.5t-18.5 27t-7 33.5q0 36 25.5 61.5t61.5 25.5q18 0 33.5 -7t27 -18.5t18.5 -27.5t7 -34zM234 72q0 -18 -7 -33.5t-18.5 -27t-27.5 -18.5t-34 -7t-33.5 7t-27 18.5t-18.5 27t-7 33.5t7 34t18.5 27.5
t27 18.5t33.5 7q36 0 61.5 -25.5t25.5 -61.5zM507 72q0 -18 -7 -33.5t-18.5 -27t-27 -18.5t-33.5 -7t-34 7t-27.5 18.5t-18.5 27t-7 33.5q0 36 25.5 61.5t61.5 25.5q18 0 33.5 -7t27 -18.5t18.5 -27.5t7 -34z" />
    <glyph glyph-name="perthousand" unicode="&#x2030;" horiz-adv-x="1125" 
d="M741 159q0 -34 -8 -65.5t-26.5 -55.5t-48.5 -38.5t-73 -14.5t-72.5 14.5t-47.5 38.5t-26 55t-8 65t8 65.5t26.5 55.5t48.5 38.5t73 14.5t72.5 -14t47.5 -38t26 -55.5t8 -65.5zM349 482q0 -34 -8 -65.5t-26.5 -55.5t-48.5 -38.5t-73 -14.5t-72.5 14t-47.5 38t-26 55.5
t-8 65.5t8 65.5t26.5 55.5t48.5 38.5t73 14.5t72.5 -14.5t47.5 -38.5t26 -55t8 -65zM1085 159q0 -34 -8 -65.5t-26.5 -55.5t-48.5 -38.5t-73 -14.5q-44 0 -73.5 14.5t-47.5 38.5t-25.5 55t-7.5 65t8 65.5t26.5 55.5t48.5 38.5t73 14.5t72.5 -14t47.5 -38t26 -55.5t8 -65.5z
M272 0h-122l359 640h122zM643 174q0 29 -14 51t-42 22q-31 0 -44 -21.5t-13 -50.5v-32q0 -29 14 -51t42 -22q31 0 44 21.5t13 50.5v32zM986 174q0 29 -14 51t-41 22q-31 0 -44.5 -21.5t-13.5 -50.5v-32q0 -29 14.5 -51t41.5 -22q31 0 44 21.5t13 50.5v32zM251 497
q0 29 -14 50.5t-42 21.5q-31 0 -44 -21.5t-13 -50.5v-32q0 -29 14 -50.5t42 -21.5q31 0 44 21.5t13 50.5v32z" />
    <glyph glyph-name="guilsinglleft" unicode="&#x2039;" horiz-adv-x="348" 
d="M178 38l-139 231l139 231h130l-138 -231l138 -231h-130z" />
    <glyph glyph-name="guilsinglright" unicode="&#x203a;" horiz-adv-x="348" 
d="M170 38h-131l139 231l-139 231h131l138 -231z" />
    <glyph glyph-name="fraction" unicode="&#x2044;" horiz-adv-x="242" 
d="M-11 -80h-123l407 833h122z" />
    <glyph glyph-name="uni2070" unicode="&#x2070;" horiz-adv-x="421" 
d="M384 427q0 -46 -9 -87t-29 -71.5t-54 -48.5t-83 -18q-50 0 -83 17.5t-53 48t-28.5 71t-8.5 86.5t9 87t29 71.5t53.5 48.5t83.5 18t83 -17.5t53 -48t28.5 -71t8.5 -86.5zM274 451q0 53 -17 82t-46 29q-32 0 -48.5 -28.5t-16.5 -81.5v-51q0 -53 17 -82.5t46 -29.5
q32 0 48.5 29t16.5 82v51z" />
    <glyph glyph-name="uni2071" unicode="&#x2071;" horiz-adv-x="201" 
d="M48 211v336h108v-336h-108zM164 636q0 -26 -18.5 -43.5t-45.5 -17.5q-26 0 -44.5 17.5t-18.5 43.5q0 25 18.5 42.5t44.5 17.5q27 0 45.5 -17.5t18.5 -42.5z" />
    <glyph glyph-name="uni2074" unicode="&#x2074;" horiz-adv-x="409" 
d="M320 304v-93h-109v93h-192v95l151 241h150v-249h58v-87h-58zM212 565h-1l-110 -174v-1h25q15 0 31 0.5t31 0.5h24v174z" />
    <glyph glyph-name="uni2075" unicode="&#x2075;" horiz-adv-x="370" 
d="M333 351q0 -34 -13.5 -61.5t-37.5 -47t-56.5 -30t-70.5 -10.5t-67.5 7t-50.5 18l6 86q19 -10 49 -18t56 -8q39 0 56 18.5t17 45.5t-21 42t-64 15h-94l6 232h272v-86l-170 -1l-1 -70h30q31 0 59 -7.5t49 -23.5t33.5 -41t12.5 -60z" />
    <glyph glyph-name="uni2076" unicode="&#x2076;" horiz-adv-x="394" 
d="M363 355q0 -32 -9.5 -60t-29.5 -48.5t-50.5 -32.5t-72.5 -12q-45 0 -77 14.5t-52 41t-29 65t-9 86.5q0 60 14.5 105t40.5 75t63 45.5t81 15.5q32 0 57 -5.5t48 -14.5l-6 -86q-18 8 -44.5 14.5t-55.5 6.5q-18 0 -34 -8t-29 -21.5t-20.5 -31.5t-7.5 -39v-12h1
q7 9 28.5 22.5t56.5 13.5q65 0 100.5 -36.5t35.5 -97.5zM257 350q0 26 -14 43t-40 17q-29 0 -44.5 -16t-15.5 -38q0 -28 14 -50.5t44 -22.5q29 0 42.5 19t13.5 48z" />
    <glyph glyph-name="uni2077" unicode="&#x2077;" horiz-adv-x="365" 
d="M192 211h-120l121 341l-170 2v86h319z" />
    <glyph glyph-name="uni2078" unicode="&#x2078;" horiz-adv-x="395" 
d="M362 331q0 -35 -14 -59.5t-37.5 -40t-54.5 -22.5t-64 -7q-32 0 -61 7t-51 22.5t-34.5 39t-12.5 56.5q0 27 10 45t22.5 29.5t25 17.5t18.5 8v2q-7 3 -18.5 10t-23 19t-19.5 29.5t-8 41.5q0 33 14 56t37 37.5t52 21t59 6.5q31 0 58.5 -7t48.5 -22t33.5 -37.5t12.5 -52.5
q0 -25 -9 -42.5t-20.5 -29.5t-23 -18t-15.5 -8v-1q6 -3 18.5 -9t25 -18t22 -30t9.5 -44zM254 332q0 12 -6 21.5t-15 16.5t-19.5 12t-19.5 8q-5 -2 -14.5 -6t-18.5 -11t-16 -17t-7 -24q0 -23 15.5 -37t41.5 -14t42.5 13.5t16.5 37.5zM251 525q0 22 -13.5 34.5t-38.5 12.5
t-39.5 -12.5t-14.5 -34.5q0 -13 6 -22.5t15 -16.5t19 -11.5t17 -7.5q6 3 14.5 8t16 12t13 16.5t5.5 21.5z" />
    <glyph glyph-name="uni2079" unicode="&#x2079;" horiz-adv-x="394" 
d="M358 443q0 -60 -14.5 -105t-41 -75.5t-63 -45.5t-80.5 -15q-32 0 -57 5.5t-48 13.5l6 86q19 -8 45 -14t55 -6q18 0 34 7.5t29 21t20.5 31.5t7.5 39v13h-1q-7 -9 -28.5 -22.5t-56.5 -13.5q-64 0 -100 36.5t-36 97.5q0 32 9.5 60t29.5 48.5t50.5 32.5t72.5 12
q45 0 77 -14.5t52 -41.5t29 -65t9 -86zM249 496q0 28 -13.5 50.5t-44.5 22.5q-29 0 -42.5 -19t-13.5 -48q0 -26 14 -43t40 -17q29 0 44.5 15.5t15.5 38.5z" />
    <glyph glyph-name="uni207D" unicode="&#x207d;" horiz-adv-x="303" 
d="M171 125q-14 13 -33.5 39.5t-37 64t-30 86t-12.5 105.5q0 58 12.5 106t30 85.5t37 63.5t33.5 39h113q-14 -16 -33.5 -44.5t-37.5 -66t-30.5 -81.5t-12.5 -90v-25q0 -46 12.5 -90t30.5 -81.5t37.5 -66t33.5 -44.5h-113z" />
    <glyph glyph-name="uni207E" unicode="&#x207e;" horiz-adv-x="303" 
d="M245 420q0 -58 -12.5 -106.5t-30 -86t-37 -63.5t-33.5 -39h-113q14 16 33.5 44.5t37.5 66t30.5 81.5t12.5 90v25q0 46 -12.5 90t-30.5 81.5t-37.5 66t-33.5 44.5h113q14 -13 33.5 -39.5t37 -64t30 -85.5t12.5 -105z" />
    <glyph glyph-name="uni207F" unicode="&#x207f;" horiz-adv-x="411" 
d="M259 211v204q0 21 -8.5 35.5t-37.5 14.5q-24 0 -41.5 -15.5t-17.5 -33.5v-205h-108v336h105v-35h1q4 5 12.5 12.5t21.5 14.5t29 12t35 5q54 0 85.5 -28t31.5 -88v-229h-108z" />
    <glyph glyph-name="uni2080" unicode="&#x2080;" horiz-adv-x="421" 
d="M384 16q0 -46 -9 -87t-29 -71.5t-54 -48.5t-83 -18q-50 0 -83 17.5t-53 48t-28.5 71t-8.5 86.5t9 87t29 71.5t53.5 48.5t83.5 18t83 -17.5t53 -48t28.5 -71t8.5 -86.5zM274 40q0 53 -17 82t-46 29q-32 0 -48.5 -28.5t-16.5 -81.5v-51q0 -53 17 -82.5t46 -29.5
q32 0 48.5 29t16.5 82v51z" />
    <glyph glyph-name="uni2081" unicode="&#x2081;" horiz-adv-x="289" 
d="M112 -200v321q-11 -5 -39 -16t-60 -22l-5 90q20 6 39 14t35.5 16t29.5 15t21 11h89v-429h-110z" />
    <glyph glyph-name="uni2082" unicode="&#x2082;" horiz-adv-x="360" 
d="M31 -201v94q13 11 32.5 28t40 36.5t38.5 38t29 32.5q16 20 26 37.5t10 36.5q0 21 -14.5 34.5t-43.5 13.5q-25 0 -55 -13t-50 -29l-6 91q27 18 61.5 28.5t72.5 10.5q31 0 58 -8t46.5 -24t31 -39t11.5 -53q0 -23 -6 -43t-17.5 -39t-26.5 -37t-33 -37q-8 -8 -20 -19l-24 -21
q-12 -10 -22 -18.5t-12 -11.5v-1h161v-88h-288z" />
    <glyph glyph-name="uni2083" unicode="&#x2083;" horiz-adv-x="370" 
d="M330 -75q0 -33 -14.5 -58.5t-38.5 -42t-55.5 -25t-65.5 -8.5q-37 0 -67.5 6.5t-50.5 14.5l5 88q21 -11 48.5 -17.5t54.5 -6.5q35 0 54 14.5t19 38.5q0 14 -7.5 23.5t-19.5 15.5t-27 8.5t-30 2.5h-70v78l69 1q38 1 59.5 14.5t21.5 36.5q0 19 -15.5 31.5t-47.5 12.5
q-25 0 -55 -8.5t-51 -19.5l-5 86q23 11 55 19t71 8q31 0 59.5 -6.5t50.5 -21t35 -37t13 -54.5q0 -23 -8.5 -40t-20.5 -28.5t-25.5 -18t-22.5 -8.5v-1q10 -2 24 -7.5t27 -17t22 -29.5t9 -44z" />
    <glyph glyph-name="uni2084" unicode="&#x2084;" horiz-adv-x="409" 
d="M320 -107v-93h-109v93h-192v95l151 241h150v-249h58v-87h-58zM212 154h-1l-110 -174v-1h25q15 0 31 0.5t31 0.5h24v174z" />
    <glyph glyph-name="uni2085" unicode="&#x2085;" horiz-adv-x="370" 
d="M333 -60q0 -34 -13.5 -61.5t-37.5 -47t-56.5 -30t-70.5 -10.5t-67.5 7t-50.5 18l6 86q19 -10 49 -18t56 -8q39 0 56 18.5t17 45.5t-21 42t-64 15h-94l6 232h272v-86l-170 -1l-1 -70h30q31 0 59 -7.5t49 -23.5t33.5 -41t12.5 -60z" />
    <glyph glyph-name="uni2086" unicode="&#x2086;" horiz-adv-x="394" 
d="M363 -56q0 -32 -9.5 -60t-29.5 -48.5t-50.5 -32.5t-72.5 -12q-45 0 -77 14.5t-52 41t-29 65t-9 86.5q0 60 14.5 105t40.5 75t63 45.5t81 15.5q32 0 57 -5.5t48 -14.5l-6 -86q-18 8 -44.5 14.5t-55.5 6.5q-18 0 -34 -8t-29 -21.5t-20.5 -31.5t-7.5 -39v-12h1
q7 9 28.5 22.5t56.5 13.5q65 0 100.5 -36.5t35.5 -97.5zM257 -61q0 26 -14 43t-40 17q-29 0 -44.5 -16t-15.5 -38q0 -28 14 -50.5t44 -22.5q29 0 42.5 19t13.5 48z" />
    <glyph glyph-name="uni2087" unicode="&#x2087;" horiz-adv-x="365" 
d="M192 -200h-120l121 341l-170 2v86h319z" />
    <glyph glyph-name="uni2088" unicode="&#x2088;" horiz-adv-x="395" 
d="M362 -81q0 -35 -14 -59.5t-37.5 -40t-54.5 -22.5t-64 -7q-32 0 -61 7t-51 22.5t-34.5 39t-12.5 56.5q0 27 10 45t22.5 29.5t25 17.5t18.5 8v2q-7 3 -18.5 10t-23 19t-19.5 29.5t-8 41.5q0 33 14 56t37 37.5t52 21t59 6.5q31 0 58.5 -7t48.5 -22t33.5 -37.5t12.5 -52.5
q0 -25 -9 -42.5t-20.5 -29.5t-23 -18t-15.5 -8v-1q6 -3 18.5 -9t25 -18t22 -30t9.5 -44zM254 -80q0 12 -6 21.5t-15 16.5t-19.5 12t-19.5 8q-5 -2 -14.5 -6t-18.5 -11t-16 -17t-7 -24q0 -23 15.5 -37t41.5 -14t42.5 13.5t16.5 37.5zM251 113q0 22 -13.5 34.5t-38.5 12.5
t-39.5 -12.5t-14.5 -34.5q0 -13 6 -22.5t15 -16.5t19 -11.5t17 -7.5q6 3 14.5 8t16 12t13 16.5t5.5 21.5z" />
    <glyph glyph-name="uni2089" unicode="&#x2089;" horiz-adv-x="394" 
d="M358 31q0 -60 -14.5 -105t-41 -75.5t-63 -45.5t-80.5 -15q-32 0 -57 5.5t-48 13.5l6 86q19 -8 45 -14t55 -6q18 0 34 7.5t29 21t20.5 31.5t7.5 39v13h-1q-7 -9 -28.5 -22.5t-56.5 -13.5q-64 0 -100 36.5t-36 97.5q0 32 9.5 60t29.5 48.5t50.5 32.5t72.5 12q45 0 77 -14.5
t52 -41.5t29 -65t9 -86zM249 84q0 28 -13.5 50.5t-44.5 22.5q-29 0 -42.5 -19t-13.5 -48q0 -26 14 -43t40 -17q29 0 44.5 15.5t15.5 38.5z" />
    <glyph glyph-name="uni208D" unicode="&#x208d;" horiz-adv-x="303" 
d="M171 -289q-14 13 -33.5 39.5t-37 64t-30 86t-12.5 105.5q0 58 12.5 106t30 85.5t37 63.5t33.5 39h113q-14 -16 -33.5 -44.5t-37.5 -66t-30.5 -81.5t-12.5 -90v-25q0 -46 12.5 -90t30.5 -81.5t37.5 -66t33.5 -44.5h-113z" />
    <glyph glyph-name="uni208E" unicode="&#x208e;" horiz-adv-x="303" 
d="M245 6q0 -58 -12.5 -106.5t-30 -86t-37 -63.5t-33.5 -39h-113q14 16 33.5 44.5t37.5 66t30.5 81.5t12.5 90v25q0 46 -12.5 90t-30.5 81.5t-37.5 66t-33.5 44.5h113q14 -13 33.5 -39.5t37 -64t30 -85.5t12.5 -105z" />
    <glyph glyph-name="Euro" unicode="&#x20ac;" 
d="M497 12q-34 -14 -71.5 -20.5t-74.5 -6.5q-55 0 -93.5 17t-65 47t-41.5 70t-22 85h-90l6 85h77q-1 11 -1 22v44q0 12 1 25h-83l6 84h87q9 45 26 85t46 69t70.5 46t99.5 17q39 0 65.5 -5t50.5 -13l-6 -105q-23 10 -47.5 13.5t-52.5 3.5q-48 0 -80.5 -28.5t-44.5 -82.5h178
l-6 -84h-183v-91h189l-6 -85h-175q13 -60 46 -86.5t78 -26.5q29 0 59.5 7.5t57.5 20.5v-107z" />
    <glyph glyph-name="uni2117" unicode="&#x2117;" horiz-adv-x="792" 
d="M752 333q0 -79 -28 -144t-76 -112t-113 -73t-140 -26t-140 26t-113 73.5t-76 113t-28 144.5t28 144.5t76 112t113 72.5t140 26t140 -26t113 -73t76 -113t28 -145zM666 335q0 60 -21 110.5t-58 86.5t-86 56.5t-106 20.5t-106 -20t-85 -56.5t-57 -87t-21 -110.5
q0 -61 21 -111.5t57.5 -87t85.5 -56.5t106 -20t106 20t85.5 56.5t57.5 87t21 111.5zM536 393q0 -110 -134 -110h-25v-109h-82v320h116q58 0 91.5 -23t33.5 -78zM453 389q0 20 -10 30.5t-36 10.5h-30v-83h22q33 0 43.5 12t10.5 30z" />
    <glyph glyph-name="trademark" unicode="&#x2122;" horiz-adv-x="727" 
d="M583 359l-10 198h-1l-93 -165l-93 165h-1l-10 -198h-75l23 308h78l78 -137h1l76 137h78l24 -308h-75zM196 598v-239h-84v239h-80v69h244v-69h-80z" />
    <glyph glyph-name="uni2126" unicode="&#x2126;" horiz-adv-x="642" 
d="M359 0v206q12 1 29.5 8t33.5 24t27 45t11 70v73q0 72 -33.5 109t-104.5 37q-140 0 -140 -146v-73q0 -42 11 -70t27 -45t33.5 -24t29.5 -8v-206h-236v110h132v33q-40 12 -65.5 33t-40.5 51.5t-20.5 71.5t-5.5 93q0 65 11.5 118.5t42 91.5t84.5 59t140 21t138.5 -21
t81.5 -59t39 -91.5t10 -118.5q0 -59 -7 -101t-23 -71t-40.5 -47.5t-60.5 -29.5v-33h131v-110h-235z" />
    <glyph glyph-name="uni2150" unicode="&#x2150;" horiz-adv-x="896" 
d="M112 211v321q-11 -5 -39 -16t-60 -22l-5 90q20 6 39 14t35.5 16t29.5 15t21 11h89v-429h-110zM258 -80h-123l407 833h122zM723 0h-120l121 341l-170 2v86h319z" />
    <glyph glyph-name="uni2151" unicode="&#x2151;" horiz-adv-x="925" 
d="M112 211v321q-11 -5 -39 -16t-60 -22l-5 90q20 6 39 14t35.5 16t29.5 15t21 11h89v-429h-110zM278 -80h-123l407 833h122zM889 231q0 -60 -14.5 -105t-41 -75.5t-63 -45.5t-80.5 -15q-32 0 -57 5.5t-48 13.5l6 86q19 -8 45 -14t55 -6q18 0 34 7.5t29 21t20.5 31.5t7.5 39
v13h-1q-7 -9 -28.5 -22.5t-56.5 -13.5q-64 0 -100 36.5t-36 97.5q0 32 9.5 60t29.5 48.5t50.5 32.5t72.5 12q45 0 77 -14.5t52 -41.5t29 -65t9 -86zM780 284q0 28 -13.5 50.5t-44.5 22.5q-29 0 -42.5 -19t-13.5 -48q0 -26 14 -43t40 -17q29 0 44.5 15.5t15.5 38.5z" />
    <glyph glyph-name="uni2152" unicode="&#x2152;" horiz-adv-x="1241" 
d="M112 211v321q-11 -5 -39 -16t-60 -22l-5 90q20 6 39 14t35.5 16t29.5 15t21 11h89v-429h-110zM263 -80h-123l407 833h122zM643 0v321q-11 -5 -39 -16t-60 -22l-5 90q20 6 39 14t35.5 16t29.5 15t21 11h89v-429h-110zM1204 215q0 -46 -9 -87t-29 -71.5t-54 -48.5t-83 -18
q-50 0 -83 17.5t-53 48t-28.5 71t-8.5 86.5t9 87t29 71.5t53.5 48.5t83.5 18t83 -17.5t53 -48t28.5 -71t8.5 -86.5zM1094 239q0 53 -17 82t-46 29q-32 0 -48.5 -28.5t-16.5 -81.5v-51q0 -53 17 -82.5t46 -29.5q32 0 48.5 29t16.5 82v51z" />
    <glyph glyph-name="onethird" unicode="&#x2153;" horiz-adv-x="901" 
d="M112 211v321q-11 -5 -39 -16t-60 -22l-5 90q20 6 39 14t35.5 16t29.5 15t21 11h89v-429h-110zM268 -80h-123l407 833h122zM861 125q0 -33 -14.5 -58.5t-38.5 -42t-55.5 -25t-65.5 -8.5q-37 0 -67.5 6.5t-50.5 14.5l5 88q21 -11 48.5 -17.5t54.5 -6.5q35 0 54 14.5
t19 38.5q0 14 -7.5 23.5t-19.5 15.5t-27 8.5t-30 2.5h-70v78l69 1q38 1 59.5 14.5t21.5 36.5q0 19 -15.5 31.5t-47.5 12.5q-25 0 -55 -8.5t-51 -19.5l-5 86q23 11 55 19t71 8q31 0 59.5 -6.5t50.5 -21t35 -37t13 -54.5q0 -23 -8.5 -40t-20.5 -28.5t-25.5 -18t-22.5 -8.5v-1
q10 -2 24 -7.5t27 -17t22 -29.5t9 -44z" />
    <glyph glyph-name="twothirds" unicode="&#x2154;" horiz-adv-x="972" 
d="M31 210v94q13 11 32.5 28t40 36.5t38.5 38t29 32.5q16 20 26 37.5t10 36.5q0 21 -14.5 34.5t-43.5 13.5q-25 0 -55 -13t-50 -29l-6 91q27 18 61.5 28.5t72.5 10.5q31 0 58 -8t46.5 -24t31 -39t11.5 -53q0 -23 -6 -43t-17.5 -39t-26.5 -37t-33 -37q-8 -8 -20 -19l-24 -21
q-12 -10 -22 -18.5t-12 -11.5v-1h161v-88h-288zM349 -80h-123l407 833h122zM932 125q0 -33 -14.5 -58.5t-38.5 -42t-55.5 -25t-65.5 -8.5q-37 0 -67.5 6.5t-50.5 14.5l5 88q21 -11 48.5 -17.5t54.5 -6.5q35 0 54 14.5t19 38.5q0 14 -7.5 23.5t-19.5 15.5t-27 8.5t-30 2.5
h-70v78l69 1q38 1 59.5 14.5t21.5 36.5q0 19 -15.5 31.5t-47.5 12.5q-25 0 -55 -8.5t-51 -19.5l-5 86q23 11 55 19t71 8q31 0 59.5 -6.5t50.5 -21t35 -37t13 -54.5q0 -23 -8.5 -40t-20.5 -28.5t-25.5 -18t-22.5 -8.5v-1q10 -2 24 -7.5t27 -17t22 -29.5t9 -44z" />
    <glyph glyph-name="uni2155" unicode="&#x2155;" horiz-adv-x="901" 
d="M112 211v321q-11 -5 -39 -16t-60 -22l-5 90q20 6 39 14t35.5 16t29.5 15t21 11h89v-429h-110zM267 -80h-123l407 833h122zM864 140q0 -34 -13.5 -61.5t-37.5 -47t-56.5 -30t-70.5 -10.5t-67.5 7t-50.5 18l6 86q19 -10 49 -18t56 -8q39 0 56 18.5t17 45.5t-21 42t-64 15
h-94l6 232h272v-86l-170 -1l-1 -70h30q31 0 59 -7.5t49 -23.5t33.5 -41t12.5 -60z" />
    <glyph glyph-name="uni2156" unicode="&#x2156;" horiz-adv-x="972" 
d="M31 210v94q13 11 32.5 28t40 36.5t38.5 38t29 32.5q16 20 26 37.5t10 36.5q0 21 -14.5 34.5t-43.5 13.5q-25 0 -55 -13t-50 -29l-6 91q27 18 61.5 28.5t72.5 10.5q31 0 58 -8t46.5 -24t31 -39t11.5 -53q0 -23 -6 -43t-17.5 -39t-26.5 -37t-33 -37q-8 -8 -20 -19l-24 -21
q-12 -10 -22 -18.5t-12 -11.5v-1h161v-88h-288zM349 -80h-123l407 833h122zM935 140q0 -34 -13.5 -61.5t-37.5 -47t-56.5 -30t-70.5 -10.5t-67.5 7t-50.5 18l6 86q19 -10 49 -18t56 -8q39 0 56 18.5t17 45.5t-21 42t-64 15h-94l6 232h272v-86l-170 -1l-1 -70h30
q31 0 59 -7.5t49 -23.5t33.5 -41t12.5 -60z" />
    <glyph glyph-name="uni2157" unicode="&#x2157;" horiz-adv-x="982" 
d="M330 336q0 -33 -14.5 -58.5t-38.5 -42t-55.5 -25t-65.5 -8.5q-37 0 -67.5 6.5t-50.5 14.5l5 88q21 -11 48.5 -17.5t54.5 -6.5q35 0 54 14.5t19 38.5q0 14 -7.5 23.5t-19.5 15.5t-27 8.5t-30 2.5h-70v78l69 1q38 1 59.5 14.5t21.5 36.5q0 19 -15.5 31.5t-47.5 12.5
q-25 0 -55 -8.5t-51 -19.5l-5 86q23 11 55 19t71 8q31 0 59.5 -6.5t50.5 -21t35 -37t13 -54.5q0 -23 -8.5 -40t-20.5 -28.5t-25.5 -18t-22.5 -8.5v-1q10 -2 24 -7.5t27 -17t22 -29.5t9 -44zM343 -80h-123l407 833h122zM945 140q0 -34 -13.5 -61.5t-37.5 -47t-56.5 -30
t-70.5 -10.5t-67.5 7t-50.5 18l6 86q19 -10 49 -18t56 -8q39 0 56 18.5t17 45.5t-21 42t-64 15h-94l6 232h272v-86l-170 -1l-1 -70h30q31 0 59 -7.5t49 -23.5t33.5 -41t12.5 -60z" />
    <glyph glyph-name="uni2158" unicode="&#x2158;" horiz-adv-x="1021" 
d="M320 304v-93h-109v93h-192v95l151 241h150v-249h58v-87h-58zM212 565h-1l-110 -174v-1h25q15 0 31 0.5t31 0.5h24v174zM388 -80h-123l407 833h122zM984 140q0 -34 -13.5 -61.5t-37.5 -47t-56.5 -30t-70.5 -10.5t-67.5 7t-50.5 18l6 86q19 -10 49 -18t56 -8q39 0 56 18.5
t17 45.5t-21 42t-64 15h-94l6 232h272v-86l-170 -1l-1 -70h30q31 0 59 -7.5t49 -23.5t33.5 -41t12.5 -60z" />
    <glyph glyph-name="uni2159" unicode="&#x2159;" horiz-adv-x="925" 
d="M112 211v321q-11 -5 -39 -16t-60 -22l-5 90q20 6 39 14t35.5 16t29.5 15t21 11h89v-429h-110zM286 -80h-123l407 833h122zM894 144q0 -32 -9.5 -60t-29.5 -48.5t-50.5 -32.5t-72.5 -12q-45 0 -77 14.5t-52 41t-29 65t-9 86.5q0 60 14.5 105t40.5 75t63 45.5t81 15.5
q32 0 57 -5.5t48 -14.5l-6 -86q-18 8 -44.5 14.5t-55.5 6.5q-18 0 -34 -8t-29 -21.5t-20.5 -31.5t-7.5 -39v-12h1q7 9 28.5 22.5t56.5 13.5q65 0 100.5 -36.5t35.5 -97.5zM788 139q0 26 -14 43t-40 17q-29 0 -44.5 -16t-15.5 -38q0 -28 14 -50.5t44 -22.5q29 0 42.5 19
t13.5 48z" />
    <glyph glyph-name="uni215A" unicode="&#x215a;" horiz-adv-x="1006" 
d="M333 351q0 -34 -13.5 -61.5t-37.5 -47t-56.5 -30t-70.5 -10.5t-67.5 7t-50.5 18l6 86q19 -10 49 -18t56 -8q39 0 56 18.5t17 45.5t-21 42t-64 15h-94l6 232h272v-86l-170 -1l-1 -70h30q31 0 59 -7.5t49 -23.5t33.5 -41t12.5 -60zM369 -80h-123l407 833h122zM975 144
q0 -32 -9.5 -60t-29.5 -48.5t-50.5 -32.5t-72.5 -12q-45 0 -77 14.5t-52 41t-29 65t-9 86.5q0 60 14.5 105t40.5 75t63 45.5t81 15.5q32 0 57 -5.5t48 -14.5l-6 -86q-18 8 -44.5 14.5t-55.5 6.5q-18 0 -34 -8t-29 -21.5t-20.5 -31.5t-7.5 -39v-12h1q7 9 28.5 22.5t56.5 13.5
q65 0 100.5 -36.5t35.5 -97.5zM869 139q0 26 -14 43t-40 17q-29 0 -44.5 -16t-15.5 -38q0 -28 14 -50.5t44 -22.5q29 0 42.5 19t13.5 48z" />
    <glyph glyph-name="oneeighth" unicode="&#x215b;" horiz-adv-x="926" 
d="M112 211v321q-11 -5 -39 -16t-60 -22l-5 90q20 6 39 14t35.5 16t29.5 15t21 11h89v-429h-110zM278 -80h-123l407 833h122zM893 119q0 -35 -14 -59.5t-37.5 -40t-54.5 -22.5t-64 -7q-32 0 -61 7t-51 22.5t-34.5 39t-12.5 56.5q0 27 10 45t22.5 29.5t25 17.5t18.5 8v2
q-7 3 -18.5 10t-23 19t-19.5 29.5t-8 41.5q0 33 14 56t37 37.5t52 21t59 6.5q31 0 58.5 -7t48.5 -22t33.5 -37.5t12.5 -52.5q0 -25 -9 -42.5t-20.5 -29.5t-23 -18t-15.5 -8v-1q6 -3 18.5 -9t25 -18t22 -30t9.5 -44zM785 120q0 12 -6 21.5t-15 16.5t-19.5 12t-19.5 8
q-5 -2 -14.5 -6t-18.5 -11t-16 -17t-7 -24q0 -23 15.5 -37t41.5 -14t42.5 13.5t16.5 37.5zM782 313q0 22 -13.5 34.5t-38.5 12.5t-39.5 -12.5t-14.5 -34.5q0 -13 6 -22.5t15 -16.5t19 -11.5t17 -7.5q6 3 14.5 8t16 12t13 16.5t5.5 21.5z" />
    <glyph glyph-name="threeeighths" unicode="&#x215c;" horiz-adv-x="1007" 
d="M330 336q0 -33 -14.5 -58.5t-38.5 -42t-55.5 -25t-65.5 -8.5q-37 0 -67.5 6.5t-50.5 14.5l5 88q21 -11 48.5 -17.5t54.5 -6.5q35 0 54 14.5t19 38.5q0 14 -7.5 23.5t-19.5 15.5t-27 8.5t-30 2.5h-70v78l69 1q38 1 59.5 14.5t21.5 36.5q0 19 -15.5 31.5t-47.5 12.5
q-25 0 -55 -8.5t-51 -19.5l-5 86q23 11 55 19t71 8q31 0 59.5 -6.5t50.5 -21t35 -37t13 -54.5q0 -23 -8.5 -40t-20.5 -28.5t-25.5 -18t-22.5 -8.5v-1q10 -2 24 -7.5t27 -17t22 -29.5t9 -44zM359 -80h-123l407 833h122zM974 119q0 -35 -14 -59.5t-37.5 -40t-54.5 -22.5
t-64 -7q-32 0 -61 7t-51 22.5t-34.5 39t-12.5 56.5q0 27 10 45t22.5 29.5t25 17.5t18.5 8v2q-7 3 -18.5 10t-23 19t-19.5 29.5t-8 41.5q0 33 14 56t37 37.5t52 21t59 6.5q31 0 58.5 -7t48.5 -22t33.5 -37.5t12.5 -52.5q0 -25 -9 -42.5t-20.5 -29.5t-23 -18t-15.5 -8v-1
q6 -3 18.5 -9t25 -18t22 -30t9.5 -44zM866 120q0 12 -6 21.5t-15 16.5t-19.5 12t-19.5 8q-5 -2 -14.5 -6t-18.5 -11t-16 -17t-7 -24q0 -23 15.5 -37t41.5 -14t42.5 13.5t16.5 37.5zM863 313q0 22 -13.5 34.5t-38.5 12.5t-39.5 -12.5t-14.5 -34.5q0 -13 6 -22.5t15 -16.5
t19 -11.5t17 -7.5q6 3 14.5 8t16 12t13 16.5t5.5 21.5z" />
    <glyph glyph-name="fiveeighths" unicode="&#x215d;" horiz-adv-x="1007" 
d="M333 351q0 -34 -13.5 -61.5t-37.5 -47t-56.5 -30t-70.5 -10.5t-67.5 7t-50.5 18l6 86q19 -10 49 -18t56 -8q39 0 56 18.5t17 45.5t-21 42t-64 15h-94l6 232h272v-86l-170 -1l-1 -70h30q31 0 59 -7.5t49 -23.5t33.5 -41t12.5 -60zM359 -80h-123l407 833h122zM974 119
q0 -35 -14 -59.5t-37.5 -40t-54.5 -22.5t-64 -7q-32 0 -61 7t-51 22.5t-34.5 39t-12.5 56.5q0 27 10 45t22.5 29.5t25 17.5t18.5 8v2q-7 3 -18.5 10t-23 19t-19.5 29.5t-8 41.5q0 33 14 56t37 37.5t52 21t59 6.5q31 0 58.5 -7t48.5 -22t33.5 -37.5t12.5 -52.5
q0 -25 -9 -42.5t-20.5 -29.5t-23 -18t-15.5 -8v-1q6 -3 18.5 -9t25 -18t22 -30t9.5 -44zM866 120q0 12 -6 21.5t-15 16.5t-19.5 12t-19.5 8q-5 -2 -14.5 -6t-18.5 -11t-16 -17t-7 -24q0 -23 15.5 -37t41.5 -14t42.5 13.5t16.5 37.5zM863 313q0 22 -13.5 34.5t-38.5 12.5
t-39.5 -12.5t-14.5 -34.5q0 -13 6 -22.5t15 -16.5t19 -11.5t17 -7.5q6 3 14.5 8t16 12t13 16.5t5.5 21.5z" />
    <glyph glyph-name="seveneighths" unicode="&#x215e;" horiz-adv-x="1002" 
d="M192 211h-120l121 341l-170 2v86h319zM294 -80h-123l407 833h122zM969 119q0 -35 -14 -59.5t-37.5 -40t-54.5 -22.5t-64 -7q-32 0 -61 7t-51 22.5t-34.5 39t-12.5 56.5q0 27 10 45t22.5 29.5t25 17.5t18.5 8v2q-7 3 -18.5 10t-23 19t-19.5 29.5t-8 41.5q0 33 14 56
t37 37.5t52 21t59 6.5q31 0 58.5 -7t48.5 -22t33.5 -37.5t12.5 -52.5q0 -25 -9 -42.5t-20.5 -29.5t-23 -18t-15.5 -8v-1q6 -3 18.5 -9t25 -18t22 -30t9.5 -44zM861 120q0 12 -6 21.5t-15 16.5t-19.5 12t-19.5 8q-5 -2 -14.5 -6t-18.5 -11t-16 -17t-7 -24q0 -23 15.5 -37
t41.5 -14t42.5 13.5t16.5 37.5zM858 313q0 22 -13.5 34.5t-38.5 12.5t-39.5 -12.5t-14.5 -34.5q0 -13 6 -22.5t15 -16.5t19 -11.5t17 -7.5q6 3 14.5 8t16 12t13 16.5t5.5 21.5z" />
    <glyph glyph-name="uni215F" unicode="&#x215f;" horiz-adv-x="531" 
d="M112 211v321q-11 -5 -39 -16t-60 -22l-5 90q20 6 39 14t35.5 16t29.5 15t21 11h89v-429h-110zM278 -80h-123l407 833h122z" />
    <glyph glyph-name="uni2189" unicode="&#x2189;" horiz-adv-x="1033" 
d="M384 426q0 -46 -9 -87t-29 -71.5t-54 -48.5t-83 -18q-50 0 -83 17.5t-53 48t-28.5 71t-8.5 86.5t9 87t29 71.5t53.5 48.5t83.5 18t83 -17.5t53 -48t28.5 -71t8.5 -86.5zM274 450q0 53 -17 82t-46 29q-32 0 -48.5 -28.5t-16.5 -81.5v-51q0 -53 17 -82.5t46 -29.5
q32 0 48.5 29t16.5 82v51zM390 -80h-123l407 833h122zM993 125q0 -33 -14.5 -58.5t-38.5 -42t-55.5 -25t-65.5 -8.5q-37 0 -67.5 6.5t-50.5 14.5l5 88q21 -11 48.5 -17.5t54.5 -6.5q35 0 54 14.5t19 38.5q0 14 -7.5 23.5t-19.5 15.5t-27 8.5t-30 2.5h-70v78l69 1
q38 1 59.5 14.5t21.5 36.5q0 19 -15.5 31.5t-47.5 12.5q-25 0 -55 -8.5t-51 -19.5l-5 86q23 11 55 19t71 8q31 0 59.5 -6.5t50.5 -21t35 -37t13 -54.5q0 -23 -8.5 -40t-20.5 -28.5t-25.5 -18t-22.5 -8.5v-1q10 -2 24 -7.5t27 -17t22 -29.5t9 -44z" />
    <glyph glyph-name="arrowleft" unicode="&#x2190;" horiz-adv-x="780" 
d="M244 233l174 -233h-138l-214 289l214 290h138l-174 -233h457v-113h-457z" />
    <glyph glyph-name="arrowup" unicode="&#x2191;" horiz-adv-x="780" 
d="M437 457v-457h-113v457l-233 -173v137l290 214l289 -214v-137z" />
    <glyph glyph-name="arrowright" unicode="&#x2192;" horiz-adv-x="780" 
d="M478 0h-138l173 233h-456v113h456l-173 233h138l213 -290z" />
    <glyph glyph-name="arrowdown" unicode="&#x2193;" horiz-adv-x="780" 
d="M377 -25l-290 213v138l233 -173v457h113v-457l233 173v-138z" />
    <glyph glyph-name="uni2196" unicode="&#x2196;" horiz-adv-x="780" 
d="M565 18l-323 323l-42 -287l-97 97l53 356l356 54l97 -98l-287 -42l323 -323z" />
    <glyph glyph-name="uni2197" unicode="&#x2197;" horiz-adv-x="780" 
d="M555 57l-42 287l-323 -323l-80 80l323 323l-288 42l98 97l355 -53l54 -356z" />
    <glyph glyph-name="uni2198" unicode="&#x2198;" horiz-adv-x="780" 
d="M601 68l-355 -54l-98 97l287 43l-323 323l81 80l322 -323l43 287l97 -98z" />
    <glyph glyph-name="uni2199" unicode="&#x2199;" horiz-adv-x="780" 
d="M325 151l287 -42l-97 -98l-356 54l-53 356l97 97l42 -287l323 323l80 -80z" />
    <glyph glyph-name="partialdiff" unicode="&#x2202;" horiz-adv-x="551" 
d="M503 321q0 -170 -54 -252.5t-178 -82.5q-59 0 -101.5 16.5t-70.5 47.5t-41 75.5t-13 99.5q0 105 51 160.5t144 55.5q29 0 52 -7t39.5 -16.5t26.5 -20.5t15 -18h1v29q0 50 -11.5 89t-32 65.5t-48 40t-59.5 13.5q-31 0 -63.5 -5.5t-68.5 -20.5l-6 104q30 11 63 18t78 7
q62 0 113 -22t87.5 -70t56.5 -123.5t20 -182.5zM375 228q0 47 -28.5 79.5t-77.5 32.5q-48 0 -71.5 -34t-23.5 -90q0 -57 23 -92.5t75 -35.5q29 0 48.5 13t31.5 33t17.5 45t5.5 49z" />
    <glyph glyph-name="emptyset" unicode="&#x2205;" horiz-adv-x="833" 
d="M694 547q35 -45 54.5 -99t19.5 -115q0 -73 -27.5 -137t-75 -111.5t-111.5 -75t-137 -27.5q-61 0 -115 19.5t-99 54.5l-115 -115l-78 79l117 117q-29 42 -45.5 91.5t-16.5 104.5q0 73 27.5 137t75.5 112t112 75.5t137 27.5q55 0 105 -16.5t92 -45.5l131 132l78 -79z
M652 333q0 37 -11.5 69.5t-31.5 59.5l-321 -321q56 -42 129 -42q48 0 91 18.5t75 50t50.5 74.5t18.5 91zM527 536q-49 32 -110 32q-49 0 -91.5 -18.5t-74.5 -50.5t-50.5 -74.5t-18.5 -91.5q0 -61 32 -110z" />
    <glyph glyph-name="uni2206" unicode="&#x2206;" horiz-adv-x="659" 
d="M27 0l216 667h167l212 -667h-595zM322 551h-1l-132 -443h263z" />
    <glyph glyph-name="product" unicode="&#x220f;" horiz-adv-x="673" 
d="M467 -210v760h-261v-760h-133v877h526v-877h-132z" />
    <glyph glyph-name="summation" unicode="&#x2211;" horiz-adv-x="616" 
d="M34 -210l259 435l-259 442h529v-117h-312v-1l189 -321l-193 -320v-1h325v-117h-538z" />
    <glyph glyph-name="minus" unicode="&#x2212;" 
d="M46 269v102h483v-102h-483z" />
    <glyph glyph-name="uni2215" unicode="&#x2215;" horiz-adv-x="242" 
d="M-11 -80h-123l407 833h122z" />
    <glyph glyph-name="uni2219" unicode="&#x2219;" 
d="M438 340q0 -33 -11 -60t-31 -46.5t-47.5 -30.5t-59.5 -11t-59.5 11t-48 30.5t-32 47t-11.5 59.5t11.5 59t31.5 47t47.5 31.5t59.5 11.5q33 0 60.5 -11t47.5 -31t31 -47t11 -60z" />
    <glyph glyph-name="radical" unicode="&#x221a;" horiz-adv-x="637" 
d="M295 -223l-286 647h134l146 -342h1l291 805h135z" />
    <glyph glyph-name="infinity" unicode="&#x221e;" horiz-adv-x="825" 
d="M789 305q0 -35 -12.5 -66t-36 -54t-57 -36.5t-76.5 -13.5q-29 0 -54 7.5t-47.5 20.5t-42.5 30t-39 36q-19 -19 -39 -36t-42 -30t-47 -20.5t-54 -7.5q-43 0 -76.5 13.5t-57 36.5t-36 54t-12.5 66q0 34 12.5 65t36 54t57 36.5t76.5 13.5q58 0 101.5 -27t80.5 -64
q38 37 81.5 64t101.5 27q43 0 76.5 -13.5t57 -36.5t36 -54t12.5 -65zM676 305q0 26 -19.5 44.5t-55.5 18.5q-28 0 -52.5 -17t-50.5 -45q26 -29 50 -47t53 -18q36 0 55.5 19t19.5 45zM351 305q-28 29 -52.5 46t-51.5 17q-35 0 -54.5 -18.5t-19.5 -44.5t19.5 -45t54.5 -19
q29 0 53.5 18t50.5 46z" />
    <glyph glyph-name="integral" unicode="&#x222b;" horiz-adv-x="343" 
d="M323 611q-4 1 -13 2t-21 1q-26 0 -39.5 -18.5t-13.5 -60.5v-570q0 -54 -13.5 -89.5t-35.5 -56.5t-50 -29.5t-57 -8.5q-27 0 -44 3t-22 5l6 100q4 -1 13 -2t21 -1q26 0 39.5 18.5t13.5 60.5v570q0 54 13.5 89.5t35.5 56.5t50 29.5t57 8.5q27 0 44 -3t22 -5z" />
    <glyph glyph-name="congruent" unicode="&#x2245;" 
d="M528 390q-8 -5 -22 -12.5t-32 -14t-38.5 -11t-42.5 -4.5q-32 0 -59 7.5t-52 16.5t-50 16.5t-53 7.5q-18 0 -37 -4.5t-36.5 -11t-31.5 -13.5t-22 -12l-5 101q8 5 21.5 12t31.5 13.5t38.5 11t42.5 4.5q33 0 60.5 -7.5t52.5 -16.5t50 -16.5t52 -7.5q18 0 37 4.5t36.5 11
t31 13.5t21.5 12zM46 162v101h483v-101h-483zM46 -28v101h483v-101h-483z" />
    <glyph glyph-name="approxequal" unicode="&#x2248;" 
d="M528 185q-8 -5 -22 -12.5t-32 -14t-38.5 -11t-42.5 -4.5q-32 0 -59 7.5t-52 17t-50 17t-53 7.5q-18 0 -37 -4.5t-36.5 -11t-31.5 -13.5t-22 -12l-5 100q8 5 21.5 12.5t31.5 14t38.5 11t42.5 4.5q33 0 60.5 -7.5t52.5 -17t50 -17t52 -7.5q18 0 37 4.5t36.5 11t31 14
t21.5 12.5zM528 390q-8 -5 -22 -12.5t-32 -14t-38.5 -11t-42.5 -4.5q-32 0 -59 7.5t-52 16.5t-50 16.5t-53 7.5q-18 0 -37 -4.5t-36.5 -11t-31.5 -13.5t-22 -12l-5 101q8 5 21.5 12t31.5 13.5t38.5 11t42.5 4.5q33 0 60.5 -7.5t52.5 -16.5t50 -16.5t52 -7.5q18 0 37 4.5
t36.5 11t31 13.5t21.5 12z" />
    <glyph glyph-name="notequal" unicode="&#x2260;" 
d="M275 168l-71 -168l-99 15l65 153h-124v101h167l44 103h-211v101h254l70 168l99 -15l-65 -153h125v-101h-168l-43 -103h211v-101h-254z" />
    <glyph glyph-name="lessequal" unicode="&#x2264;" 
d="M36 320l504 231v-111l-278 -118l278 -122v-111zM57 -28v101h483v-101h-483z" />
    <glyph glyph-name="greaterequal" unicode="&#x2265;" 
d="M36 89v111l278 122l-278 118v111l504 -231zM36 -28v101h483v-101h-483z" />
    <glyph glyph-name="dotmath" unicode="&#x22c5;" 
d="M374 281q0 -36 -25.5 -61.5t-61.5 -25.5q-18 0 -33.5 7t-27 18.5t-18.5 27.5t-7 34t7 33.5t18.5 27.5t27 18.5t33.5 6.5q36 0 61.5 -25t25.5 -61z" />
    <glyph glyph-name="filledbox" unicode="&#x25a0;" horiz-adv-x="780" 
d="M56 0v667h668v-667h-668z" />
    <glyph glyph-name="H22073" unicode="&#x25a1;" horiz-adv-x="780" 
d="M56 0v667h668v-667h-668zM613 557h-446v-446h446v446z" />
    <glyph glyph-name="triagup" unicode="&#x25b2;" horiz-adv-x="780" 
d="M26 0l364 624l364 -624h-728z" />
    <glyph glyph-name="uni25B3" unicode="&#x25b3;" horiz-adv-x="780" 
d="M26 0l364 624l364 -624h-728zM390 432l-195 -336h390z" />
    <glyph glyph-name="uni25B6" unicode="&#x25b6;" horiz-adv-x="780" 
d="M78 -62v727l624 -364z" />
    <glyph glyph-name="uni25B7" unicode="&#x25b7;" horiz-adv-x="780" 
d="M78 -62v727l624 -364zM174 497v-391l336 195z" />
    <glyph glyph-name="triagrt" unicode="&#x25ba;" horiz-adv-x="780" 
d="M82 50v540l616 -270z" />
    <glyph glyph-name="uni25BB" unicode="&#x25bb;" horiz-adv-x="780" 
d="M82 50v540l616 -270zM178 434v-228l279 114z" />
    <glyph glyph-name="triagdn" unicode="&#x25bc;" horiz-adv-x="780" 
d="M390 -6l-364 624h728z" />
    <glyph glyph-name="uni25BD" unicode="&#x25bd;" horiz-adv-x="780" 
d="M390 -6l-364 624h728zM195 521l195 -335l195 335h-390z" />
    <glyph glyph-name="uni25C0" unicode="&#x25c0;" horiz-adv-x="780" 
d="M78 301l624 364v-727z" />
    <glyph glyph-name="uni25C1" unicode="&#x25c1;" horiz-adv-x="780" 
d="M78 301l624 364v-727zM606 497l-336 -196l336 -195v391z" />
    <glyph glyph-name="triaglf" unicode="&#x25c4;" horiz-adv-x="780" 
d="M82 320l616 270v-540z" />
    <glyph glyph-name="uni25C5" unicode="&#x25c5;" horiz-adv-x="780" 
d="M82 320l616 270v-540zM602 434l-279 -114l279 -114v228z" />
    <glyph glyph-name="lozenge" unicode="&#x25ca;" horiz-adv-x="620" 
d="M310 -86l-295 434l295 434l295 -434zM311 607h-1l-172 -259l171 -259h1l172 259z" />
    <glyph glyph-name="circle" unicode="&#x25cb;" horiz-adv-x="780" 
d="M741 333q0 -73 -27.5 -137t-75 -111.5t-111.5 -75t-137 -27.5t-137 27.5t-111.5 75t-75 111.5t-27.5 137t27.5 137t75 112t111.5 75.5t137 27.5t137 -27.5t111.5 -75.5t75 -112t27.5 -137zM625 333q0 49 -18.5 91.5t-50.5 74.5t-74.5 50.5t-91.5 18.5t-91.5 -18.5
t-74.5 -50.5t-50.5 -74.5t-18.5 -91.5q0 -48 18.5 -91t50.5 -74.5t74.5 -50t91.5 -18.5t91.5 18.5t74.5 50t50.5 74.5t18.5 91z" />
    <glyph glyph-name="H18533" unicode="&#x25cf;" horiz-adv-x="780" 
d="M741 333q0 -73 -27.5 -137t-75 -111.5t-111.5 -75t-137 -27.5t-137 27.5t-111.5 75t-75 111.5t-27.5 137t27.5 137t75 112t111.5 75.5t137 27.5t137 -27.5t111.5 -75.5t75 -112t27.5 -137z" />
    <glyph glyph-name="uni2619" unicode="&#x2619;" horiz-adv-x="1177" 
d="M1148 412q-85 -12 -174 -30.5t-180 -42.5q29 -30 45.5 -69.5t16.5 -81.5q0 -31 -11 -64t-37 -60t-70.5 -44t-111.5 -17q-63 0 -124.5 9t-122.5 22.5t-122 29t-122 27.5l-87 -47l-39 87q25 14 50.5 27.5t51.5 27.5q43 71 91 146.5t102.5 137.5t117 102t134.5 40
q44 0 78 -13.5t57.5 -37.5t37.5 -57t17 -72q98 27 193 47.5t185 34.5zM746 196q0 35 -16.5 63.5t-39.5 49.5q-106 -31 -212 -69.5t-204 -82.5q44 -8 84.5 -17.5t81.5 -18t84 -14t92 -5.5q57 0 93.5 24t36.5 70z" />
    <glyph glyph-name="uni2767" unicode="&#x2767;" horiz-adv-x="1177" 
d="M1108 44q-21 12 -42.5 23.5t-44.5 23.5q-61 -12 -122 -27.5t-121.5 -29t-122 -22.5t-124.5 -9q-67 0 -111.5 17t-70.5 44t-37 60t-11 64q0 42 16.5 81.5t45.5 69.5q-91 24 -180 42.5t-174 30.5l24 102q90 -14 185 -34.5t192 -47.5q3 39 17 72t38 57t58 37.5t78 13.5
q72 0 133.5 -39t115.5 -100.5t102.5 -137t93.5 -149.5q26 -14 51.5 -27.5t50.5 -27.5zM882 157q-97 44 -203 82.5t-212 69.5q-23 -21 -39.5 -49.5t-16.5 -63.5q0 -46 36 -70t93 -24q49 0 92.5 5.5t84.5 14t81 18t84 17.5z" />
    <glyph glyph-name="zero.oldstyle" horiz-adv-x="585" 
d="M531 257q0 -56 -12 -105.5t-40 -86.5t-74 -58t-114 -21t-113.5 21t-73 57.5t-39 85.5t-11.5 105t12 105.5t40 86t74 58t114 21.5t113.5 -21t73 -57.5t39 -85.5t11.5 -105zM396 282q0 27 -6 51.5t-18.5 42.5t-32 28.5t-46.5 10.5q-29 0 -49 -10.5t-32.5 -28.5t-18 -42
t-5.5 -51v-52q0 -28 6 -52.5t19 -42.5t32.5 -28.5t45.5 -10.5q29 0 49 10.5t32.5 28.5t18 42t5.5 51v53z" />
    <glyph glyph-name="one.oldstyle" horiz-adv-x="431" 
d="M316 0h-132v381q-17 -8 -59.5 -25t-97.5 -35l-6 114q72 25 118.5 48t62.5 33h114v-516z" />
    <glyph glyph-name="two.oldstyle" horiz-adv-x="501" 
d="M36 0v108q13 8 35 21.5t47 29.5t50.5 32.5t45.5 30.5q25 17 44 31t32 28t19.5 28.5t6.5 33.5q0 21 -9 35.5t-24 24t-33.5 13.5t-37.5 4q-18 0 -39 -5t-42.5 -13t-41.5 -18.5t-35 -22.5l-5 108q37 26 86.5 41.5t102.5 15.5q27 0 63.5 -6.5t69 -25t55.5 -52.5t23 -88
q0 -30 -9.5 -54.5t-26.5 -45.5t-40 -39.5t-50 -37.5q-10 -7 -24.5 -16.5t-30 -19.5t-29.5 -18.5t-23 -14.5v-1l235 -1v-106h-415z" />
    <glyph glyph-name="three.oldstyle" horiz-adv-x="500" 
d="M87 251q21 0 45.5 0.5t42.5 0.5q57 1 94.5 22t37.5 66q0 22 -10 37t-25.5 24t-34.5 13t-37 4q-35 0 -74.5 -10.5t-69.5 -27.5l-6 107q42 20 84.5 29.5t89.5 9.5q42 0 81 -9t69.5 -29.5t49 -53t18.5 -80.5q0 -54 -32 -91.5t-81 -55.5v-1q25 -6 47 -19t38 -32t25.5 -44
t9.5 -56q0 -52 -20.5 -89.5t-54 -61.5t-77.5 -35.5t-90 -11.5q-39 0 -82.5 7.5t-79.5 21.5l6 111q32 -15 71 -23t74 -8q23 0 44.5 5t38 16t26 29t9.5 44t-15 43t-36.5 27t-46.5 14t-46 4h-83v103z" />
    <glyph glyph-name="four.oldstyle" horiz-adv-x="573" 
d="M463 0v-130h-133v130h-300v122l240 394h193v-409h84v-107h-84zM330 416h-1l-192 -310v-1q13 0 35.5 0.5t49 1t54.5 0.5h54v309z" />
    <glyph glyph-name="five.oldstyle" horiz-adv-x="522" 
d="M466 79q0 -50 -18.5 -90t-51.5 -69t-78 -44.5t-99 -15.5q-68 0 -109.5 13t-53.5 19l6 113q7 -4 21.5 -9.5t34 -11t42 -9.5t45.5 -4q62 0 94 28t32 77q0 51 -39 75.5t-105 24.5h-124l6 340h379v-107l-254 -2l-2 -128h49q50 0 91.5 -12.5t71 -37t46 -62t16.5 -88.5z" />
    <glyph glyph-name="six.oldstyle" horiz-adv-x="557" 
d="M511 202q0 -45 -13.5 -84.5t-41 -69t-70.5 -46t-102 -16.5q-125 0 -179.5 80.5t-54.5 227.5q0 103 24 172.5t63.5 111t91.5 59t108 17.5q40 0 72 -6t59 -17l-6 -112q-35 15 -64 20t-58 5q-31 0 -59.5 -11.5t-50 -34.5t-34.5 -59.5t-13 -85.5v-8h1q5 6 16.5 15t28 17
t38 13.5t48.5 5.5q48 0 84.5 -14.5t61 -40t37.5 -61.5t13 -78zM376 194q0 41 -22 69.5t-67 28.5q-50 0 -75 -27t-25 -62q0 -20 5 -40t16.5 -36t29.5 -26t45 -10q50 0 71.5 30t21.5 73z" />
    <glyph glyph-name="seven.oldstyle" horiz-adv-x="514" 
d="M254 -124h-151l197 528l-267 2v110h451z" />
    <glyph glyph-name="eight.oldstyle" horiz-adv-x="559" 
d="M509 172q0 -49 -18.5 -84.5t-51 -58t-76 -33.5t-92.5 -11q-47 0 -87.5 10.5t-70 33t-46.5 56t-17 80.5q0 40 14 67t33.5 45t39.5 28.5t32 18.5v1q-12 7 -30.5 18.5t-36 30t-30 45t-12.5 62.5q0 46 18.5 79t50 54t72.5 30.5t85 9.5q45 0 84 -10.5t67.5 -31.5t45 -53
t16.5 -75q0 -36 -12.5 -62t-30 -44t-36 -28.5t-30.5 -16.5v-1q12 -6 32 -18t39.5 -31t33.5 -46.5t14 -64.5zM374 175q0 25 -13 42.5t-30 29.5t-33.5 19t-23.5 11q-6 -4 -21.5 -10.5t-31 -18.5t-28 -30t-12.5 -44q0 -42 26 -65t69 -23t70.5 22.5t27.5 66.5zM367 473
q0 39 -22.5 59.5t-62.5 20.5t-64 -20.5t-24 -58.5q0 -24 11.5 -40.5t27.5 -28t31 -18t23 -10.5q4 3 17.5 9t27 17.5t24.5 28.5t11 41z" />
    <glyph glyph-name="nine.oldstyle" horiz-adv-x="557" 
d="M504 218q0 -104 -25.5 -173.5t-67 -111t-93.5 -59t-105 -17.5q-36 0 -68 6.5t-59 17.5l6 112q35 -15 63.5 -20t54.5 -5q28 0 57 11t52 34t37.5 59t14.5 86v8h-1q-5 -6 -16.5 -15t-28 -17t-38.5 -13.5t-49 -5.5q-47 0 -83.5 14.5t-61.5 40.5t-37.5 62t-12.5 78
q0 46 13 85.5t41 68.5t70.5 45.5t101.5 16.5q63 0 108 -20.5t73 -60t41 -97t13 -130.5zM367 308q0 20 -5 40t-16.5 36t-29.5 26t-45 10q-50 0 -71.5 -29.5t-21.5 -72.5q0 -41 21.5 -70t68.5 -29q48 0 73.5 27t25.5 62z" />
    <glyph glyph-name="glyph488" horiz-adv-x="1" 
d="M-325 720l-84 151h131l68 -151h-115z" />
    <glyph glyph-name="glyph489" horiz-adv-x="1" 
d="M-269 720h-114l68 151h131z" />
    <glyph glyph-name="glyph490" horiz-adv-x="1" 
d="M-243 720l-56 73l-56 -73h-118l108 151h133l108 -151h-119z" />
    <glyph glyph-name="glyph491" horiz-adv-x="1" 
d="M-129 873q0 -39 -7.5 -64.5t-21 -40.5t-32.5 -21t-41 -6q-15 0 -32 5t-33.5 11.5t-31 11.5t-24.5 5q-16 0 -22 -9.5t-6 -23.5h-94q0 39 7.5 64.5t21 40.5t32 21t40.5 6q15 0 32 -5.5t33.5 -11.5t31.5 -11.5t24 -5.5q16 0 22 10t6 24h95z" />
    <glyph glyph-name="glyph492" horiz-adv-x="1" 
d="M-28 876q0 -72 -43.5 -114t-118.5 -42t-119 42t-44 114h102q0 -27 16 -46t45 -19t44.5 19t15.5 47z" />
    <glyph glyph-name="glyph493" horiz-adv-x="1" 
d="M-231 792q0 -30 -21.5 -51.5t-52.5 -21.5t-52.5 21.5t-21.5 51.5q0 31 21.5 52.5t52.5 21.5t52.5 -21.5t21.5 -52.5zM-2 792q0 -30 -21.5 -51.5t-51.5 -21.5q-31 0 -52.5 21.5t-21.5 51.5q0 31 21.5 52.5t52.5 21.5q30 0 51.5 -21.5t21.5 -52.5z" />
    <glyph glyph-name="glyph494" horiz-adv-x="1" 
d="M-87 -120q0 -24 -7 -46t-23.5 -38.5t-44 -26t-69.5 -9.5q-14 0 -29.5 1t-33.5 4l3 79q8 -1 14 -1.5t12 -0.5q38 0 54 17.5t16 49.5q0 20 -4 39h103q4 -17 6.5 -34t2.5 -34z" />
    <glyph glyph-name="glyph495" horiz-adv-x="245" 
d="M103 -247h-99l50 195h126z" />
    <glyph glyph-name="glyph496" horiz-adv-x="245" 
d="M97 802h95l-62 -237h-126z" />
    <glyph glyph-name="glyph497" horiz-adv-x="245" 
d="M103 -247h-99l50 195h126z" />
    <glyph glyph-name="glyph498" horiz-adv-x="537" 
d="M240 570l-84 151h131l68 -151h-115z" />
    <glyph glyph-name="glyph499" horiz-adv-x="382" 
d="M12 573v107h357v-107h-357z" />
    <glyph glyph-name="glyph500" horiz-adv-x="537" 
d="M291 570h-114l68 151h131z" />
    <glyph glyph-name="glyph501" horiz-adv-x="537" 
d="M324 570l-56 73l-56 -73h-118l108 151h132l109 -151h-119z" />
    <glyph glyph-name="glyph502" horiz-adv-x="489" 
d="M311 570h-133l-108 151h119l56 -72l56 72h118z" />
    <glyph glyph-name="glyph503" horiz-adv-x="382" 
d="M353 720q0 -72 -43.5 -114t-118.5 -42t-119 42t-44 114h102q0 -27 16 -46t45 -19t44.5 19t15.5 47z" />
    <glyph glyph-name="glyph504" horiz-adv-x="382" 
d="M270 638q0 -33 -23.5 -56t-55.5 -23q-33 0 -56 23t-23 56q0 32 23 55.5t56 23.5q32 0 55.5 -23.5t23.5 -55.5z" />
    <glyph glyph-name="glyph505" horiz-adv-x="530" 
d="M377 661q0 -23 -9 -42.5t-25 -34t-37 -23t-46 -8.5t-46 8.5t-36.5 23t-24.5 34t-9 42.5q0 47 33 77.5t83 30.5t83.5 -30.5t33.5 -77.5zM303 661q0 19 -12.5 31.5t-30.5 12.5t-30.5 -12.5t-12.5 -31.5q0 -18 12.5 -31t30.5 -13t30.5 13t12.5 31z" />
    <glyph glyph-name="glyph506" horiz-adv-x="537" 
d="M438 723q0 -39 -7.5 -64.5t-21 -40.5t-32.5 -21t-41 -6q-15 0 -32 5t-33.5 11.5t-31 11.5t-24.5 5q-16 0 -22 -9.5t-6 -23.5h-94q0 39 7.5 64.5t21 40.5t32 21t40.5 6q15 0 32.5 -5.5t34 -11.5t31 -11.5t24.5 -5.5q16 0 21.5 10t5.5 24h95z" />
    <glyph glyph-name="glyph507" horiz-adv-x="382" 
d="M316 570h-115l68 151h131zM96 570h-115l68 151h131z" />
    <glyph glyph-name="glyph508" horiz-adv-x="537" 
d="M228 647q0 -31 -21.5 -52.5t-52.5 -21.5t-52.5 21.5t-21.5 52.5t21.5 52.5t52.5 21.5t52.5 -21.5t21.5 -52.5z" />
    <glyph glyph-name="glyph509" horiz-adv-x="621" 
d="M295 720l-84 151h131l68 -151h-115z" />
    <glyph glyph-name="glyph510" horiz-adv-x="382" 
d="M12 719v107h357v-107h-357z" />
    <glyph glyph-name="glyph511" horiz-adv-x="621" 
d="M351 720h-114l68 151h131z" />
    <glyph glyph-name="glyph512" horiz-adv-x="621" 
d="M377 720l-56 73l-56 -73h-118l108 151h133l108 -151h-119z" />
    <glyph glyph-name="glyph513" horiz-adv-x="532" 
d="M345 720h-133l-108 151h119l56 -72l56 72h118z" />
    <glyph glyph-name="glyph514" horiz-adv-x="382" 
d="M353 870q0 -72 -43.5 -114t-118.5 -42t-119 42t-44 114h102q0 -27 16 -46t45 -19t44.5 19t15.5 47z" />
    <glyph glyph-name="glyph515" horiz-adv-x="382" 
d="M270 798q0 -33 -23.5 -56t-55.5 -23q-33 0 -56 23t-23 56q0 32 23 55.5t56 23.5q32 0 55.5 -23.5t23.5 -55.5z" />
    <glyph glyph-name="glyph516" horiz-adv-x="382" 
d="M307 811q0 -23 -9 -42.5t-24.5 -34t-36.5 -23t-46 -8.5t-46 8.5t-36.5 23t-24.5 34t-9 42.5q0 47 33 77.5t83 30.5t83 -30.5t33 -77.5zM234 811q0 19 -12.5 31.5t-30.5 12.5t-30.5 -12.5t-12.5 -31.5q0 -18 12.5 -31t30.5 -13t30.5 13t12.5 31z" />
    <glyph glyph-name="glyph517" horiz-adv-x="621" 
d="M491 873q0 -39 -7.5 -64.5t-21 -40.5t-32.5 -21t-41 -6q-15 0 -32 5t-33.5 11.5t-31 11.5t-24.5 5q-16 0 -22 -9.5t-6 -23.5h-94q0 39 7.5 64.5t21 40.5t32 21t40.5 6q15 0 32 -5.5t33.5 -11.5t31.5 -11.5t24 -5.5q16 0 22 10t6 24h95z" />
    <glyph glyph-name="glyph518" horiz-adv-x="382" 
d="M316 720h-115l68 151h131zM96 720h-115l68 151h131z" />
    <glyph glyph-name="glyph519" horiz-adv-x="621" 
d="M278 792q0 -30 -21.5 -51.5t-52.5 -21.5q-30 0 -52 21.5t-22 51.5q0 31 22 52.5t52 21.5q31 0 52.5 -21.5t21.5 -52.5z" />
    </font>
</defs>
</svg>
